  0
SECTION
  2
HEADER
  9
$ACADVER
  1
AC1015
  9
$ACADMAINTVER
 70
     6
  9
$DWGCODEPAGE
  3
ANSI_1252
  9
$INSBASE
 10
0.0
 20
0.0
 30
0.0
  9
$EXTMIN
 10
686.9280241935486
 20
-679.100201612904
 30
0.0
  9
$EXTMAX
 10
983.9280241935488
 20
-469.1002016129039
 30
0.0
  9
$LIMMIN
 10
0.0
 20
0.0
  9
$LIMMAX
 10
12.0
 20
9.0
  9
$ORTHOMODE
 70
     0
  9
$REGENMODE
 70
     1
  9
$FILLMODE
 70
     1
  9
$QTEXTMODE
 70
     0
  9
$MIRRTEXT
 70
     1
  9
$LTSCALE
 40
1.0
  9
$ATTMODE
 70
     1
  9
$TEXTSIZE
 40
0.2
  9
$TRACEWID
 40
0.05
  9
$TEXTSTYLE
  7
Standard
  9
$CLAYER
  8
0
  9
$CELTYPE
  6
ByLayer
  9
$CECOLOR
 62
   256
  9
$CELTSCALE
 40
1.0
  9
$DISPSILH
 70
     0
  9
$DIMSCALE
 40
1.0
  9
$DIMASZ
 40
0.18
  9
$DIMEXO
 40
0.0625
  9
$DIMDLI
 40
0.38
  9
$DIMRND
 40
0.0
  9
$DIMDLE
 40
0.0
  9
$DIMEXE
 40
0.18
  9
$DIMTP
 40
0.0
  9
$DIMTM
 40
0.0
  9
$DIMTXT
 40
0.18
  9
$DIMCEN
 40
0.09
  9
$DIMTSZ
 40
0.0
  9
$DIMTOL
 70
     0
  9
$DIMLIM
 70
     0
  9
$DIMTIH
 70
     1
  9
$DIMTOH
 70
     1
  9
$DIMSE1
 70
     0
  9
$DIMSE2
 70
     0
  9
$DIMTAD
 70
     0
  9
$DIMZIN
 70
     0
  9
$DIMBLK
  1

  9
$DIMASO
 70
     1
  9
$DIMSHO
 70
     1
  9
$DIMPOST
  1

  9
$DIMAPOST
  1

  9
$DIMALT
 70
     0
  9
$DIMALTD
 70
     2
  9
$DIMALTF
 40
25.4
  9
$DIMLFAC
 40
1.0
  9
$DIMTOFL
 70
     0
  9
$DIMTVP
 40
0.0
  9
$DIMTIX
 70
     0
  9
$DIMSOXD
 70
     0
  9
$DIMSAH
 70
     0
  9
$DIMBLK1
  1

  9
$DIMBLK2
  1

  9
$DIMSTYLE
  2
Standard
  9
$DIMCLRD
 70
     0
  9
$DIMCLRE
 70
     0
  9
$DIMCLRT
 70
     0
  9
$DIMTFAC
 40
1.0
  9
$DIMGAP
 40
0.09
  9
$DIMJUST
 70
     0
  9
$DIMSD1
 70
     0
  9
$DIMSD2
 70
     0
  9
$DIMTOLJ
 70
     1
  9
$DIMTZIN
 70
     0
  9
$DIMALTZ
 70
     0
  9
$DIMALTTZ
 70
     0
  9
$DIMUPT
 70
     0
  9
$DIMDEC
 70
     4
  9
$DIMTDEC
 70
     4
  9
$DIMALTU
 70
     2
  9
$DIMALTTD
 70
     2
  9
$DIMTXSTY
  7
Standard
  9
$DIMAUNIT
 70
     0
  9
$DIMADEC
 70
     0
  9
$DIMALTRND
 40
0.0
  9
$DIMAZIN
 70
     0
  9
$DIMDSEP
 70
    46
  9
$DIMATFIT
 70
     3
  9
$DIMFRAC
 70
     0
  9
$DIMLDRBLK
  1

  9
$DIMLUNIT
 70
     2
  9
$DIMLWD
 70
    -2
  9
$DIMLWE
 70
    -2
  9
$DIMTMOVE
 70
     0
  9
$LUNITS
 70
     2
  9
$LUPREC
 70
     4
  9
$SKETCHINC
 40
0.1
  9
$FILLETRAD
 40
0.5
  9
$AUNITS
 70
     0
  9
$AUPREC
 70
     0
  9
$MENU
  1
.
  9
$ELEVATION
 40
0.0
  9
$PELEVATION
 40
0.0
  9
$THICKNESS
 40
0.0
  9
$LIMCHECK
 70
     0
  9
$CHAMFERA
 40
0.5
  9
$CHAMFERB
 40
0.5
  9
$CHAMFERC
 40
1.0
  9
$CHAMFERD
 40
0.0
  9
$SKPOLY
 70
     0
  9
$TDCREATE
 40
2456997.606627338
  9
$TDUCREATE
 40
2456997.564960671
  9
$TDUPDATE
 40
2456997.606627523
  9
$TDUUPDATE
 40
2456997.564960856
  9
$TDINDWG
 40
0.0000000116
  9
$TDUSRTIMER
 40
0.0000000116
  9
$USRTIMER
 70
     1
  9
$ANGBASE
 50
0.0
  9
$ANGDIR
 70
     0
  9
$PDMODE
 70
     0
  9
$PDSIZE
 40
0.0
  9
$PLINEWID
 40
0.0
  9
$SPLFRAME
 70
     0
  9
$SPLINETYPE
 70
     6
  9
$SPLINESEGS
 70
     8
  9
$HANDSEED
  5
341
  9
$SURFTAB1
 70
     6
  9
$SURFTAB2
 70
     6
  9
$SURFTYPE
 70
     6
  9
$SURFU
 70
     6
  9
$SURFV
 70
     6
  9
$UCSBASE
  2

  9
$UCSNAME
  2

  9
$UCSORG
 10
0.0
 20
0.0
 30
0.0
  9
$UCSXDIR
 10
1.0
 20
0.0
 30
0.0
  9
$UCSYDIR
 10
0.0
 20
1.0
 30
0.0
  9
$UCSORTHOREF
  2

  9
$UCSORTHOVIEW
 70
     0
  9
$UCSORGTOP
 10
0.0
 20
0.0
 30
0.0
  9
$UCSORGBOTTOM
 10
0.0
 20
0.0
 30
0.0
  9
$UCSORGLEFT
 10
0.0
 20
0.0
 30
0.0
  9
$UCSORGRIGHT
 10
0.0
 20
0.0
 30
0.0
  9
$UCSORGFRONT
 10
0.0
 20
0.0
 30
0.0
  9
$UCSORGBACK
 10
0.0
 20
0.0
 30
0.0
  9
$PUCSBASE
  2

  9
$PUCSNAME
  2

  9
$PUCSORG
 10
0.0
 20
0.0
 30
0.0
  9
$PUCSXDIR
 10
1.0
 20
0.0
 30
0.0
  9
$PUCSYDIR
 10
0.0
 20
1.0
 30
0.0
  9
$PUCSORTHOREF
  2

  9
$PUCSORTHOVIEW
 70
     0
  9
$PUCSORGTOP
 10
0.0
 20
0.0
 30
0.0
  9
$PUCSORGBOTTOM
 10
0.0
 20
0.0
 30
0.0
  9
$PUCSORGLEFT
 10
0.0
 20
0.0
 30
0.0
  9
$PUCSORGRIGHT
 10
0.0
 20
0.0
 30
0.0
  9
$PUCSORGFRONT
 10
0.0
 20
0.0
 30
0.0
  9
$PUCSORGBACK
 10
0.0
 20
0.0
 30
0.0
  9
$USERI1
 70
     0
  9
$USERI2
 70
     0
  9
$USERI3
 70
     0
  9
$USERI4
 70
     0
  9
$USERI5
 70
     0
  9
$USERR1
 40
18.1
  9
$USERR2
 40
0.0
  9
$USERR3
 40
0.0
  9
$USERR4
 40
0.0
  9
$USERR5
 40
0.0
  9
$WORLDVIEW
 70
     1
  9
$SHADEDGE
 70
     3
  9
$SHADEDIF
 70
    70
  9
$TILEMODE
 70
     1
  9
$MAXACTVP
 70
    64
  9
$PINSBASE
 10
0.0
 20
0.0
 30
0.0
  9
$PLIMCHECK
 70
     0
  9
$PEXTMIN
 10
1.00000000000000E+20
 20
1.00000000000000E+20
 30
1.00000000000000E+20
  9
$PEXTMAX
 10
-1.00000000000000E+20
 20
-1.00000000000000E+20
 30
-1.00000000000000E+20
  9
$PLIMMIN
 10
0.0
 20
0.0
  9
$PLIMMAX
 10
12.0
 20
9.0
  9
$UNITMODE
 70
     0
  9
$VISRETAIN
 70
     1
  9
$PLINEGEN
 70
     0
  9
$PSLTSCALE
 70
     1
  9
$TREEDEPTH
 70
  3020
  9
$CMLSTYLE
  2
Standard
  9
$CMLJUST
 70
     0
  9
$CMLSCALE
 40
1.0
  9
$PROXYGRAPHICS
 70
     1
  9
$MEASUREMENT
 70
     1
  9
$CELWEIGHT
370
    -1
  9
$ENDCAPS
280
     0
  9
$JOINSTYLE
280
     0
  9
$LWDISPLAY
290
     0
  9
$INSUNITS
 70
     4
  9
$HYPERLINKBASE
  1

  9
$STYLESHEET
  1

  9
$XEDIT
290
     1
  9
$CEPSNTYPE
380
     0
  9
$PSTYLEMODE
290
     1
  9
$FINGERPRINTGUID
  2
{D2700B54-75B8-49F7-B591-C605BA39C932}
  9
$VERSIONGUID
  2
{FAEB1C32-E019-11D5-929B-00C0DF256EC4}
  9
$EXTNAMES
290
     1
  9
$PSVPSCALE
 40
0.0
  9
$OLESTARTUP
290
     0
  0
ENDSEC
  0
SECTION
  2
CLASSES
  0
CLASS
  1
ACDBDICTIONARYWDFLT
  2
AcDbDictionaryWithDefault
  3
ObjectDBX Classes
 90
        0
280
     0
281
     0
  0
CLASS
  1
VISUALSTYLE
  2
AcDbVisualStyle
  3
ObjectDBX Classes
 90
     4095
280
     0
281
     0
  0
CLASS
  1
MATERIAL
  2
AcDbMaterial
  3
ObjectDBX Classes
 90
     1153
280
     0
281
     0
  0
CLASS
  1
DICTIONARYVAR
  2
AcDbDictionaryVar
  3
ObjectDBX Classes
 90
        0
280
     0
281
     0
  0
CLASS
  1
ACDBPLACEHOLDER
  2
AcDbPlaceHolder
  3
ObjectDBX Classes
 90
        0
280
     0
281
     0
  0
CLASS
  1
LAYOUT
  2
AcDbLayout
  3
ObjectDBX Classes
 90
        0
280
     0
281
     0
  0
ENDSEC
  0
SECTION
  2
TABLES
  0
TABLE
  2
VPORT
  5
8
330
0
100
AcDbSymbolTable
 70
     1
  0
VPORT
  5
29
330
8
100
AcDbSymbolTableRecord
100
AcDbViewportTableRecord
  2
*Active
 70
     0
 10
0.0
 20
0.0
 11
1.0
 21
1.0
 12
835.4280241935487
 22
-574.1002016129039
 13
0.0
 23
0.0
 14
0.5
 24
0.5
 15
0.5
 25
0.5
 16
0.0
 26
0.0
 36
1.0
 17
0.0
 27
0.0
 37
0.0
 40
231.0000000000001
 41
1.60267857142857
 42
50.0
 43
0.0
 44
0.0
 50
0.0
 51
0.0
 71
     0
 72
   100
 73
     1
 74
     3
 75
     0
 76
     0
 77
     0
 78
     0
281
     0
 65
     1
110
0.0
120
0.0
130
0.0
111
1.0
121
0.0
131
0.0
112
0.0
122
1.0
132
0.0
 79
     0
146
0.0
  0
ENDTAB
  0
TABLE
  2
LTYPE
  5
5
330
0
100
AcDbSymbolTable
 70
     8
  0
LTYPE
  5
14
330
5
100
AcDbSymbolTableRecord
100
AcDbLinetypeTableRecord
  2
ByBlock
 70
     0
  3

 72
    65
 73
     0
 40
0.0
  0
LTYPE
  5
15
330
5
100
AcDbSymbolTableRecord
100
AcDbLinetypeTableRecord
  2
ByLayer
 70
     0
  3

 72
    65
 73
     0
 40
0.0
  0
LTYPE
  5
16
330
5
100
AcDbSymbolTableRecord
100
AcDbLinetypeTableRecord
  2
Continuous
 70
     0
  3
Solid line
 72
    65
 73
     0
 40
0.0
  0
LTYPE
  5
3F
330
5
100
AcDbSymbolTableRecord
100
AcDbLinetypeTableRecord
  2
DASHED
 70
     0
  3
Dashed
 72
    65
 73
     2
 40
15.0
 49
7.0
 74
     0
 49
-8.0
 74
     0
  0
LTYPE
  5
40
330
5
100
AcDbSymbolTableRecord
100
AcDbLinetypeTableRecord
  2
DOTTED
 70
     0
  3
Dotted
 72
    65
 73
     2
 40
1.0
 49
0.0
 74
     0
 49
-1.0
 74
     0
  0
LTYPE
  5
41
330
5
100
AcDbSymbolTableRecord
100
AcDbLinetypeTableRecord
  2
DOT_CENTER
 70
     0
  3
Dot_Center
 72
    65
 73
     4
 40
14.0
 49
12.0
 74
     0
 49
-1.0
 74
     0
 49
0.0
 74
     0
 49
-1.0
 74
     0
  0
LTYPE
  5
42
330
5
100
AcDbSymbolTableRecord
100
AcDbLinetypeTableRecord
  2
LONG_DASHED
 70
     0
  3
Long_Dashed
 72
    65
 73
     2
 40
15.0
 49
10.0
 74
     0
 49
-5.0
 74
     0
  0
LTYPE
  5
43
330
5
100
AcDbSymbolTableRecord
100
AcDbLinetypeTableRecord
  2
DASH_CENTER
 70
     0
  3
Dash_Center
 72
    65
 73
     4
 40
14.0
 49
11.0
 74
     0
 49
-1.0
 74
     0
 49
1.0
 74
     0
 49
-1.0
 74
     0
  0
LTYPE
  5
44
330
5
100
AcDbSymbolTableRecord
100
AcDbLinetypeTableRecord
  2
PHANTOM
 70
     0
  3
Phantom
 72
    65
 73
     6
 40
13.0
 49
10.0
 74
     0
 49
-1.0
 74
     0
 49
0.0
 74
     0
 49
-1.0
 74
     0
 49
0.0
 74
     0
 49
-1.0
 74
     0
  0
LTYPE
  5
45
330
5
100
AcDbSymbolTableRecord
100
AcDbLinetypeTableRecord
  2
CENTER_DASH_DASH
 70
     0
  3
Center_Dash_Dash
 72
    65
 73
     6
 40
14.0
 49
9.0
 74
     0
 49
-1.0
 74
     0
 49
1.0
 74
     0
 49
-1.0
 74
     0
 49
1.0
 74
     0
 49
-1.0
 74
     0
  0
ENDTAB
  0
TABLE
  2
LAYER
  5
2
330
0
100
AcDbSymbolTable
 70
     3
  0
LAYER
  5
10
330
2
100
AcDbSymbolTableRecord
100
AcDbLayerTableRecord
  2
0
 70
     0
 62
     7
  6
Continuous
370
    -3
390
F
  0
LAYER
  5
46
330
2
100
AcDbSymbolTableRecord
100
AcDbLayerTableRecord
  2
1
 70
     0
 62
     7
  6
Continuous
370
    -3
390
F
  0
LAYER
  5
47
330
2
100
AcDbSymbolTableRecord
100
AcDbLayerTableRecord
  2
Sichtbare_Kanten_TC_020513_DIN_
 70
     0
 62
     7
  6
Continuous
370
    -3
390
F
  0
ENDTAB
  0
TABLE
  2
STYLE
  5
3
330
0
100
AcDbSymbolTable
 70
     4
  0
STYLE
  5
11
330
3
100
AcDbSymbolTableRecord
100
AcDbTextStyleTableRecord
  2
Standard
 70
     0
 40
0.0
 41
1.0
 50
0.0
 71
     0
 42
0.2
  3
txt
  4

  0
STYLE
  5
9B
330
3
100
AcDbSymbolTableRecord
100
AcDbTextStyleTableRecord
  2
CONVERTER_11
 70
     0
 40
0.0
 41
1.2
 50
0.0
 71
     0
 42
0.2
  3
ARIAL.TTF
  4

  0
STYLE
  5
2D1
330
3
100
AcDbSymbolTableRecord
100
AcDbTextStyleTableRecord
  2
CONVERTER_12
 70
     0
 40
0.0
 41
1.056
 50
0.0
 71
     0
 42
0.2
  3
ARIAL.TTF
  4

  0
STYLE
  5
2D9
330
3
100
AcDbSymbolTableRecord
100
AcDbTextStyleTableRecord
  2
CONVERTER_13
 70
     0
 40
0.0
 41
0.95
 50
0.0
 71
     0
 42
0.2
  3
simplex.shx
  4

  0
ENDTAB
  0
TABLE
  2
VIEW
  5
6
330
0
100
AcDbSymbolTable
 70
     0
  0
ENDTAB
  0
TABLE
  2
UCS
  5
7
330
0
100
AcDbSymbolTable
 70
     0
  0
ENDTAB
  0
TABLE
  2
APPID
  5
9
330
0
100
AcDbSymbolTable
 70
     1
  0
APPID
  5
12
330
9
100
AcDbSymbolTableRecord
100
AcDbRegAppTableRecord
  2
ACAD
 70
     0
  0
ENDTAB
  0
TABLE
  2
DIMSTYLE
  5
A
330
0
100
AcDbSymbolTable
 70
     7
100
AcDbDimStyleTable
  0
DIMSTYLE
105
27
330
A
100
AcDbSymbolTableRecord
100
AcDbDimStyleTableRecord
  2
Standard
 70
     0
178
     0
340
11
  0
DIMSTYLE
105
2DD
102
{ACAD_REACTORS
330
2DE
102
}
330
A
100
AcDbSymbolTableRecord
100
AcDbDimStyleTableRecord
  2
ME10_DIM_10
 70
     0
  3
M<>
 41
3.0
 42
0.5
 44
1.0
 73
     0
 74
     0
 77
     1
 78
     8
140
3.0
147
2.0
172
     1
173
     1
174
     1
175
     1
176
     2
177
     2
271
     2
178
     4
271
     2
340
2D9
  0
DIMSTYLE
105
2E8
102
{ACAD_REACTORS
330
2E9
102
}
330
A
100
AcDbSymbolTableRecord
100
AcDbDimStyleTableRecord
  2
ME10_DIM_11
 70
     0
 41
3.0
 42
0.5
 44
1.0
 73
     0
 74
     0
 77
     1
 78
     8
140
3.0
147
2.0
172
     1
173
     1
174
     1
175
     1
176
     2
177
     2
271
     2
178
     4
271
     2
340
2D9
  0
DIMSTYLE
105
2F3
102
{ACAD_REACTORS
330
2F4
102
}
330
A
100
AcDbSymbolTableRecord
100
AcDbDimStyleTableRecord
  2
ME10_DIM_12
 70
     0
 41
3.0
 42
0.5
 44
1.0
 73
     0
 74
     0
 77
     1
 78
     8
140
3.0
147
2.0
172
     1
173
     1
174
     1
175
     1
176
     2
177
     2
271
     2
178
     4
271
     2
340
2D9
  0
DIMSTYLE
105
2FE
102
{ACAD_REACTORS
330
2FF
102
}
330
A
100
AcDbSymbolTableRecord
100
AcDbDimStyleTableRecord
  2
ME10_DIM_13
 70
     0
 41
3.0
 42
0.5
 44
1.0
 73
     0
 74
     0
 77
     1
 78
     8
140
3.0
147
2.0
172
     1
173
     1
174
     1
175
     1
176
     2
177
     2
271
     2
178
     4
271
     2
340
2D9
  0
DIMSTYLE
105
309
102
{ACAD_REACTORS
330
30A
102
}
330
A
100
AcDbSymbolTableRecord
100
AcDbDimStyleTableRecord
  2
ME10_DIM_14
 70
     0
 41
3.0
 42
0.5
 44
1.0
 73
     0
 74
     0
 77
     1
 78
     8
140
3.0
147
2.0
172
     1
173
     1
174
     1
175
     1
176
     2
177
     2
271
     2
178
     4
271
     2
340
2D9
  0
DIMSTYLE
105
314
102
{ACAD_REACTORS
330
315
102
}
330
A
100
AcDbSymbolTableRecord
100
AcDbDimStyleTableRecord
  2
ME10_DIM_15
 70
     0
 41
3.0
 42
0.5
 44
1.0
 73
     0
 74
     0
 77
     1
 78
     8
140
3.0
147
2.0
172
     1
173
     1
174
     1
175
     1
176
     2
177
     2
271
     2
178
     4
271
     2
340
2D9
  0
ENDTAB
  0
TABLE
  2
BLOCK_RECORD
  5
1
330
0
100
AcDbSymbolTable
 70
     9
  0
BLOCK_RECORD
  5
1F
330
1
100
AcDbSymbolTableRecord
100
AcDbBlockTableRecord
  2
*Model_Space
340
22
  0
BLOCK_RECORD
  5
1B
330
1
100
AcDbSymbolTableRecord
100
AcDbBlockTableRecord
  2
*Paper_Space
340
1E
  0
BLOCK_RECORD
  5
23
330
1
100
AcDbSymbolTableRecord
100
AcDbBlockTableRecord
  2
*Paper_Space0
340
26
  0
BLOCK_RECORD
  5
48
330
1
100
AcDbSymbolTableRecord
100
AcDbBlockTableRecord
  2
_formato_A4
340
0
102
{BLKREFS
331
4C
102
}
  0
BLOCK_RECORD
  5
4B
330
1
100
AcDbSymbolTableRecord
100
AcDbBlockTableRecord
  2
A4_oriz
340
0
102
{BLKREFS
331
4F
102
}
  0
BLOCK_RECORD
  5
2D3
330
1
100
AcDbSymbolTableRecord
100
AcDbBlockTableRecord
  2
*D3
340
0
  0
BLOCK_RECORD
  5
2DF
330
1
100
AcDbSymbolTableRecord
100
AcDbBlockTableRecord
  2
*D4
340
0
  0
BLOCK_RECORD
  5
2EA
330
1
100
AcDbSymbolTableRecord
100
AcDbBlockTableRecord
  2
*D5
340
0
  0
BLOCK_RECORD
  5
2F5
330
1
100
AcDbSymbolTableRecord
100
AcDbBlockTableRecord
  2
*D6
340
0
  0
BLOCK_RECORD
  5
300
330
1
100
AcDbSymbolTableRecord
100
AcDbBlockTableRecord
  2
*D7
340
0
  0
BLOCK_RECORD
  5
30B
330
1
100
AcDbSymbolTableRecord
100
AcDbBlockTableRecord
  2
*D8
340
0
  0
ENDTAB
  0
ENDSEC
  0
SECTION
  2
BLOCKS
  0
BLOCK
  5
20
330
1F
100
AcDbEntity
  8
0
100
AcDbBlockBegin
  2
*Model_Space
 70
     0
 10
0.0
 20
0.0
 30
0.0
  3
*Model_Space
  1

  0
ENDBLK
  5
21
330
1F
100
AcDbEntity
  8
0
100
AcDbBlockEnd
  0
BLOCK
  5
1C
330
1B
100
AcDbEntity
 67
     1
  8
0
100
AcDbBlockBegin
  2
*Paper_Space
 70
     0
 10
0.0
 20
0.0
 30
0.0
  3
*Paper_Space
  1

  0
ENDBLK
  5
1D
330
1B
100
AcDbEntity
 67
     1
  8
0
100
AcDbBlockEnd
  0
BLOCK
  5
24
330
23
100
AcDbEntity
  8
0
100
AcDbBlockBegin
  2
*Paper_Space0
 70
     0
 10
0.0
 20
0.0
 30
0.0
  3
*Paper_Space0
  1

  0
ENDBLK
  5
25
330
23
100
AcDbEntity
  8
0
100
AcDbBlockEnd
  0
BLOCK
  5
49
330
48
100
AcDbEntity
  8
0
100
AcDbBlockBegin
  2
_formato_A4
 70
     0
 10
491.9640120967744
 20
-339.550100806452
 30
0.0
  3
_formato_A4
  1

  0
LINE
  5
50
330
48
100
AcDbEntity
  8
1
  6
Continuous
 62
     7
100
AcDbLine
 10
302.9640120967744
 20
-334.5501008064522
 30
0.0
 11
302.9640120967744
 21
-299.5501008064521
 31
0.0
  0
LINE
  5
51
330
48
100
AcDbEntity
  8
1
  6
Continuous
 62
     7
100
AcDbLine
 10
302.9640120967744
 20
-319.5501008064521
 30
0.0
 11
486.9640120967744
 21
-319.5501008064521
 31
0.0
  0
LINE
  5
52
330
48
100
AcDbEntity
  8
1
  6
Continuous
 62
     7
100
AcDbLine
 10
199.9640120967741
 20
-150.550100806452
 30
0.0
 11
199.9640120967741
 21
-334.550100806452
 31
0.0
  0
LINE
  5
53
330
48
100
AcDbEntity
  8
1
  6
Continuous
 62
     7
100
AcDbLine
 10
327.9640120967744
 20
-304.5501008064521
 30
0.0
 11
327.9640120967744
 21
-299.5501008064521
 31
0.0
  0
LINE
  5
54
330
48
100
AcDbEntity
  8
1
  6
Continuous
 62
     7
100
AcDbLine
 10
309.9640120967744
 20
-304.5501008064521
 30
0.0
 11
309.9640120967744
 21
-299.5501008064521
 31
0.0
  0
LINE
  5
55
330
48
100
AcDbEntity
  8
1
  6
Continuous
 62
     7
100
AcDbLine
 10
302.9640120967744
 20
-299.5501008064521
 30
0.0
 11
486.9640120967744
 21
-299.550100806452
 31
0.0
  0
LINE
  5
56
330
48
100
AcDbEntity
  8
1
  6
Continuous
 62
     7
100
AcDbLine
 10
327.9640120967744
 20
-309.5501008064521
 30
0.0
 11
327.9640120967744
 21
-304.5501008064521
 31
0.0
  0
LINE
  5
57
330
48
100
AcDbEntity
  8
1
  6
Continuous
 62
     7
100
AcDbLine
 10
309.9640120967744
 20
-309.5501008064521
 30
0.0
 11
309.9640120967744
 21
-304.5501008064521
 31
0.0
  0
LINE
  5
58
330
48
100
AcDbEntity
  8
1
  6
Continuous
 62
     7
100
AcDbLine
 10
302.9640120967744
 20
-304.550100806452
 30
0.0
 11
486.9640120967744
 21
-304.5501008064521
 31
0.0
  0
LINE
  5
59
330
48
100
AcDbEntity
  8
1
  6
Continuous
 62
     7
100
AcDbLine
 10
327.9640120967744
 20
-314.5501008064521
 30
0.0
 11
327.9640120967744
 21
-309.5501008064521
 31
0.0
  0
LINE
  5
5A
330
48
100
AcDbEntity
  8
1
  6
Continuous
 62
     7
100
AcDbLine
 10
309.9640120967744
 20
-314.5501008064521
 30
0.0
 11
309.9640120967744
 21
-309.5501008064521
 31
0.0
  0
LINE
  5
5B
330
48
100
AcDbEntity
  8
1
  6
Continuous
 62
     7
100
AcDbLine
 10
302.9640120967744
 20
-309.5501008064521
 30
0.0
 11
486.9640120967744
 21
-309.5501008064521
 31
0.0
  0
LINE
  5
5C
330
48
100
AcDbEntity
  8
1
  6
Continuous
 62
     7
100
AcDbLine
 10
327.9640120967744
 20
-319.5501008064521
 30
0.0
 11
327.9640120967744
 21
-314.5501008064521
 31
0.0
  0
LINE
  5
5D
330
48
100
AcDbEntity
  8
1
  6
Continuous
 62
     7
100
AcDbLine
 10
309.9640120967744
 20
-319.5501008064521
 30
0.0
 11
309.9640120967744
 21
-314.5501008064521
 31
0.0
  0
LINE
  5
5E
330
48
100
AcDbEntity
  8
1
  6
Continuous
 62
     7
100
AcDbLine
 10
302.9640120967744
 20
-314.5501008064521
 30
0.0
 11
486.9640120967744
 21
-314.5501008064521
 31
0.0
  0
LINE
  5
5F
102
{ACAD_REACTORS
330
A0
102
}
330
48
100
AcDbEntity
  8
1
  6
Continuous
 62
     7
100
AcDbLine
 10
477.8068869366801
 20
-328.9920987260717
 30
0.0
 11
476.4735536033468
 21
-329.7613294953023
 31
0.0
  0
LINE
  5
60
102
{ACAD_REACTORS
330
A0
102
}
330
48
100
AcDbEntity
  8
1
  6
Continuous
 62
     7
100
AcDbLine
 10
476.640312785517
 20
-328.8954642738041
 30
0.0
 11
477.4737386343538
 21
-328.4146416687058
 31
0.0
  0
LINE
  5
61
102
{ACAD_REACTORS
330
A0
102
}
330
48
100
AcDbEntity
  8
1
  6
Continuous
 62
     7
100
AcDbLine
 10
476.6403127855169
 20
-327.3834341397854
 30
0.0
 11
476.640312785517
 21
-328.8954642738041
 31
0.0
  0
LINE
  5
62
102
{ACAD_REACTORS
330
A0
102
}
330
48
100
AcDbEntity
  8
1
  6
Continuous
 62
     7
100
AcDbLine
 10
477.640312785517
 20
-327.3834341397854
 30
0.0
 11
476.6403127855169
 21
-327.3834341397854
 31
0.0
  0
LINE
  5
63
102
{ACAD_REACTORS
330
A0
102
}
330
48
100
AcDbEntity
  8
1
  6
Continuous
 62
     7
100
AcDbLine
 10
476.6403127855169
 20
-326.7167674731188
 30
0.0
 11
477.640312785517
 21
-326.7167674731188
 31
0.0
  0
LINE
  5
64
102
{ACAD_REACTORS
330
A0
102
}
330
48
100
AcDbEntity
  8
1
  6
Continuous
 62
     7
100
AcDbLine
 10
476.640312785517
 20
-325.2047373391001
 30
0.0
 11
476.6403127855169
 21
-326.7167674731188
 31
0.0
  0
LINE
  5
65
102
{ACAD_REACTORS
330
A0
102
}
330
48
100
AcDbEntity
  8
1
  6
Continuous
 62
     7
100
AcDbLine
 10
477.4737386343538
 20
-325.6855599441983
 30
0.0
 11
476.640312785517
 21
-325.2047373391001
 31
0.0
  0
LINE
  5
66
102
{ACAD_REACTORS
330
A0
102
}
330
48
100
AcDbEntity
  8
1
  6
Continuous
 62
     7
100
AcDbLine
 10
476.4735536033468
 20
-324.3388721176018
 30
0.0
 11
477.8068869366801
 21
-325.1081028868326
 31
0.0
  0
LINE
  5
67
102
{ACAD_REACTORS
330
A1
102
}
330
48
100
AcDbEntity
  8
1
  6
Continuous
 62
     7
100
AcDbLine
 10
469.3069794521836
 20
-328.7033701973888
 30
0.0
 11
469.3069794521836
 21
-325.3968314155154
 31
0.0
  0
LINE
  5
68
102
{ACAD_REACTORS
330
A1
102
}
330
48
100
AcDbEntity
  8
1
  6
Continuous
 62
     7
100
AcDbLine
 10
469.9736461188502
 20
-328.5108488891887
 30
0.0
 11
469.9736461188502
 21
-328.7033701973888
 31
0.0
  0
LINE
  5
69
102
{ACAD_REACTORS
330
A1
102
}
330
48
100
AcDbEntity
  8
1
  6
Continuous
 62
     7
100
AcDbLine
 10
469.9736461188502
 20
-325.3968314155154
 30
0.0
 11
469.9736461188502
 21
-328.5108488891887
 31
0.0
  0
LINE
  5
6A
102
{ACAD_REACTORS
330
A2
102
}
330
48
100
AcDbEntity
  8
1
  6
Continuous
 62
     7
100
AcDbLine
 10
473.1404053010205
 20
-331.1074833414563
 30
0.0
 11
470.9738311498574
 21
-329.8575367157852
 31
0.0
  0
LINE
  5
6B
102
{ACAD_REACTORS
330
A2
102
}
330
48
100
AcDbEntity
  8
1
  6
Continuous
 62
     7
100
AcDbLine
 10
471.3069794521836
 20
-329.2800796584194
 30
0.0
 11
473.4735536033468
 21
-330.5300262840905
 31
0.0
  0
LINE
  5
6C
102
{ACAD_REACTORS
330
A2
102
}
330
48
100
AcDbEntity
  8
1
  6
Continuous
 62
     7
100
AcDbLine
 10
471.3069794521836
 20
-324.6276006462847
 30
0.0
 11
471.3069794521836
 21
-329.2800796584194
 31
0.0
  0
LINE
  5
6D
102
{ACAD_REACTORS
330
A2
102
}
330
48
100
AcDbEntity
  8
1
  6
Continuous
 62
     7
100
AcDbLine
 10
470.640312785517
 20
-329.2800796584195
 30
0.0
 11
470.640312785517
 21
-324.6276006462847
 31
0.0
  0
LINE
  5
6E
102
{ACAD_REACTORS
330
A3
102
}
330
48
100
AcDbEntity
  8
1
  6
Continuous
 62
     7
100
AcDbLine
 10
474.8125457685603
 20
-323.6864003881798
 30
0.0
 11
473.640312785517
 21
-325.7167674731188
 31
0.0
  0
LINE
  5
6F
102
{ACAD_REACTORS
330
A3
102
}
330
48
100
AcDbEntity
  8
1
  6
Continuous
 62
     7
100
AcDbLine
 10
475.3069794521836
 20
-330.2418317358503
 30
0.0
 11
475.3069794521836
 21
-323.8188834944175
 31
0.0
  0
LINE
  5
70
102
{ACAD_REACTORS
330
A3
102
}
330
48
100
AcDbEntity
  8
1
  6
Continuous
 62
     7
100
AcDbLine
 10
474.640312785517
 20
-327.050100806452
 30
0.0
 11
474.640312785517
 21
-330.2418317358503
 31
0.0
  0
LINE
  5
71
102
{ACAD_REACTORS
330
A3
102
}
330
48
100
AcDbEntity
  8
1
  6
Continuous
 62
     7
100
AcDbLine
 10
472.640312785517
 20
-328.7025157338191
 30
0.0
 11
472.6403127855169
 21
-327.0501008064521
 31
0.0
  0
LINE
  5
72
102
{ACAD_REACTORS
330
A3
102
}
330
48
100
AcDbEntity
  8
1
  6
Continuous
 62
     7
100
AcDbLine
 10
471.9736461188502
 20
-327.050100806452
 30
0.0
 11
471.9736461188502
 21
-328.7025157338191
 31
0.0
  0
LINE
  5
73
102
{ACAD_REACTORS
330
A3
102
}
330
48
100
AcDbEntity
  8
1
  6
Continuous
 62
     7
100
AcDbLine
 10
472.4680798024737
 20
-323.6864003881798
 30
0.0
 11
473.640312785517
 21
-325.7167674731188
 31
0.0
  0
LINE
  5
74
102
{ACAD_REACTORS
330
A3
102
}
330
48
100
AcDbEntity
  8
1
  6
Continuous
 62
     7
100
AcDbLine
 10
471.9736461188502
 20
-327.050100806452
 30
0.0
 11
471.9736461188502
 21
-323.8188834944175
 31
0.0
  0
LINE
  5
75
330
48
100
AcDbEntity
  8
1
  6
Continuous
 62
     7
100
AcDbLine
 10
473.640312785517
 20
-332.050100806452
 30
0.0
 11
465.2238775103755
 21
-327.1944650707935
 31
0.0
  0
LINE
  5
76
330
48
100
AcDbEntity
  8
1
  6
Continuous
 62
     7
100
AcDbLine
 10
482.0567480606584
 20
-327.1944650707935
 30
0.0
 11
473.640312785517
 21
-332.050100806452
 31
0.0
  0
LINE
  5
77
330
48
100
AcDbEntity
  8
1
  6
Continuous
 62
     7
100
AcDbLine
 10
473.6403127855169
 20
-322.0501008064521
 30
0.0
 11
482.0567480606584
 21
-326.9057365421107
 31
0.0
  0
LINE
  5
78
330
48
100
AcDbEntity
  8
1
  6
Continuous
 62
     7
100
AcDbLine
 10
465.2238775103755
 20
-326.9057365421107
 30
0.0
 11
473.6403127855169
 21
-322.0501008064521
 31
0.0
  0
LINE
  5
79
102
{ACAD_REACTORS
330
A3
102
}
330
48
100
AcDbEntity
  8
1
  6
Continuous
 62
     7
100
AcDbLine
 10
472.640312785517
 20
-325.3180499988832
 30
0.0
 11
472.6403127855169
 21
-327.0501008064521
 31
0.0
  0
LINE
  5
7A
102
{ACAD_REACTORS
330
A3
102
}
330
48
100
AcDbEntity
  8
1
  6
Continuous
 62
     7
100
AcDbLine
 10
473.4959752182195
 20
-326.800100806452
 30
0.0
 11
472.640312785517
 21
-325.3180499988832
 31
0.0
  0
LINE
  5
7B
102
{ACAD_REACTORS
330
A3
102
}
330
48
100
AcDbEntity
  8
1
  6
Continuous
 62
     7
100
AcDbLine
 10
474.640312785517
 20
-325.3180499988832
 30
0.0
 11
473.7846503528144
 21
-326.800100806452
 31
0.0
  0
LINE
  5
7C
102
{ACAD_REACTORS
330
A3
102
}
330
48
100
AcDbEntity
  8
1
  6
Continuous
 62
     7
100
AcDbLine
 10
474.640312785517
 20
-327.050100806452
 30
0.0
 11
474.640312785517
 21
-325.3180499988832
 31
0.0
  0
LINE
  5
7D
102
{ACAD_REACTORS
330
A0
102
}
330
48
100
AcDbEntity
  8
1
  6
Continuous
 62
     7
100
AcDbLine
 10
475.9736461188504
 20
-329.4726009666194
 30
0.0
 11
475.9736461188504
 21
-324.6276006462847
 31
0.0
  0
LINE
  5
7E
330
48
100
AcDbEntity
  8
1
  6
Continuous
 62
     7
100
AcDbLine
 10
486.9640120967744
 20
-150.550100806452
 30
0.0
 11
199.9640120967741
 21
-150.550100806452
 31
0.0
  0
LINE
  5
7F
330
48
100
AcDbEntity
  8
1
  6
Continuous
 62
     7
100
AcDbLine
 10
486.9640120967744
 20
-334.550100806452
 30
0.0
 11
486.9640120967744
 21
-150.550100806452
 31
0.0
  0
LINE
  5
80
330
48
100
AcDbEntity
  8
1
  6
Continuous
 62
     7
100
AcDbLine
 10
199.9640120967741
 20
-334.550100806452
 30
0.0
 11
486.9640120967744
 21
-334.550100806452
 31
0.0
  0
LINE
  5
81
330
48
100
AcDbEntity
  8
1
  6
Continuous
 62
     7
100
AcDbLine
 10
491.9640120967744
 20
-339.550100806452
 30
0.0
 11
491.9640120967744
 21
-129.5501008064519
 31
0.0
  0
LINE
  5
82
330
48
100
AcDbEntity
  8
1
  6
Continuous
 62
     7
100
AcDbLine
 10
491.9640120967744
 20
-129.5501008064519
 30
0.0
 11
194.9640120967742
 21
-129.5501008064519
 31
0.0
  0
LINE
  5
83
330
48
100
AcDbEntity
  8
1
  6
Continuous
 62
     7
100
AcDbLine
 10
194.9640120967742
 20
-129.5501008064519
 30
0.0
 11
194.9640120967742
 21
-339.550100806452
 31
0.0
  0
LINE
  5
84
330
48
100
AcDbEntity
  8
1
  6
Continuous
 62
     7
100
AcDbLine
 10
194.9640120967742
 20
-339.550100806452
 30
0.0
 11
491.9640120967744
 21
-339.550100806452
 31
0.0
  0
LINE
  5
85
330
48
100
AcDbEntity
  8
1
  6
Continuous
 62
     7
100
AcDbLine
 10
343.464012096774
 20
-129.5501008064519
 30
0.0
 11
343.464012096774
 21
-144.5501008064519
 31
0.0
  0
LINE
  5
86
330
48
100
AcDbEntity
  8
1
  6
Continuous
 62
     7
100
AcDbLine
 10
302.9640120967744
 20
-327.050100806452
 30
0.0
 11
332.9640120967744
 21
-327.050100806452
 31
0.0
  0
LINE
  5
87
330
48
100
AcDbEntity
  8
1
  6
Continuous
 62
     7
100
AcDbLine
 10
332.9640120967744
 20
-319.5501008064521
 30
0.0
 11
332.9640120967744
 21
-334.550100806452
 31
0.0
  0
LINE
  5
88
330
48
100
AcDbEntity
  8
1
  6
Continuous
 62
     7
100
AcDbLine
 10
460.3166134742597
 20
-319.5501008064521
 30
0.0
 11
460.3166134742597
 21
-334.550100806452
 31
0.0
  0
LINE
  5
89
330
48
100
AcDbEntity
  8
1
  6
Continuous
 62
     7
100
AcDbLine
 10
442.9640120967744
 20
-319.5501008064521
 30
0.0
 11
442.9640120967744
 21
-334.550100806452
 31
0.0
  0
ARC
  5
8A
102
{ACAD_REACTORS
330
A0
102
}
330
48
100
AcDbEntity
  8
1
  6
Continuous
 62
     7
100
AcDbCircle
 10
477.640312785517
 20
-328.7033701973888
 30
0.0
 40
0.3333333333333141
100
AcDbArc
 50
299.9816393688337
 51
119.9816393688373
  0
ARC
  5
8B
102
{ACAD_REACTORS
330
A0
102
}
330
48
100
AcDbEntity
  8
1
  6
Continuous
 62
     7
100
AcDbCircle
 10
477.640312785517
 20
-327.050100806452
 30
0.0
 40
0.3333333333333712
100
AcDbArc
 50
270.0
 51
90.0
  0
ARC
  5
8C
102
{ACAD_REACTORS
330
A0
102
}
330
48
100
AcDbEntity
  8
1
  6
Continuous
 62
     7
100
AcDbCircle
 10
477.640312785517
 20
-325.3968314155154
 30
0.0
 40
0.3333333333333425
100
AcDbArc
 50
240.0183606311578
 51
60.01836063115653
  0
ARC
  5
8D
102
{ACAD_REACTORS
330
A1
102
}
330
48
100
AcDbEntity
  8
1
  6
Continuous
 62
     7
100
AcDbCircle
 10
469.640312785517
 20
-328.7033701973888
 30
0.0
 40
0.3333333333333712
100
AcDbArc
 50
180.0
 51
0.0
  0
ARC
  5
8E
102
{ACAD_REACTORS
330
A1
102
}
330
48
100
AcDbEntity
  8
1
  6
Continuous
 62
     7
100
AcDbCircle
 10
469.640312785517
 20
-325.3968314155154
 30
0.0
 40
0.3333333333332007
100
AcDbArc
 50
0.0
 51
180.0
  0
ARC
  5
8F
102
{ACAD_REACTORS
330
A2
102
}
330
48
100
AcDbEntity
  8
1
  6
Continuous
 62
     7
100
AcDbCircle
 10
473.3069794521836
 20
-330.8187548127733
 30
0.0
 40
0.3333333333334125
100
AcDbArc
 50
240.0183606311761
 51
60.01836063114806
  0
ARC
  5
90
102
{ACAD_REACTORS
330
A2
102
}
330
48
100
AcDbEntity
  8
1
  6
Continuous
 62
     7
100
AcDbCircle
 10
470.9736461188502
 20
-324.6276006462847
 30
0.0
 40
0.3333333333334281
100
AcDbArc
 50
0.0
 51
180.0
  0
ARC
  5
91
102
{ACAD_REACTORS
330
A3
102
}
330
48
100
AcDbEntity
  8
1
  6
Continuous
 62
     7
100
AcDbCircle
 10
475.0420132397084
 20
-323.8188834944175
 30
0.0
 40
0.2649662124752012
100
AcDbArc
 50
0.0
 51
149.9999999999818
  0
ARC
  5
92
102
{ACAD_REACTORS
330
A3
102
}
330
48
100
AcDbEntity
  8
1
  6
Continuous
 62
     7
100
AcDbCircle
 10
474.9736461188504
 20
-330.2418317358503
 30
0.0
 40
0.3333333333334281
100
AcDbArc
 50
180.0
 51
0.0
  0
ARC
  5
93
102
{ACAD_REACTORS
330
A3
102
}
330
48
100
AcDbEntity
  8
1
  6
Continuous
 62
     7
100
AcDbCircle
 10
472.3069794521836
 20
-328.7025157338191
 30
0.0
 40
0.3333333333334281
100
AcDbArc
 50
180.0
 51
0.0
  0
ARC
  5
94
102
{ACAD_REACTORS
330
A3
102
}
330
48
100
AcDbEntity
  8
1
  6
Continuous
 62
     7
100
AcDbCircle
 10
472.2386123313256
 20
-323.8188834944175
 30
0.0
 40
0.2649662124752827
100
AcDbArc
 50
30.00000000001821
 51
180.0
  0
ARC
  5
95
102
{ACAD_REACTORS
330
A0
102
}
330
48
100
AcDbEntity
  8
1
  6
Continuous
 62
     7
100
AcDbCircle
 10
476.3069794521836
 20
-329.4726009666194
 30
0.0
 40
0.3333333333332007
100
AcDbArc
 50
180.0
 51
299.9816393688421
  0
ARC
  5
96
102
{ACAD_REACTORS
330
A0
102
}
330
48
100
AcDbEntity
  8
1
  6
Continuous
 62
     7
100
AcDbCircle
 10
476.3069794521836
 20
-324.6276006462847
 30
0.0
 40
0.3333333333333425
100
AcDbArc
 50
60.01836063115783
 51
180.0
  0
ARC
  5
97
330
48
100
AcDbEntity
  8
1
  6
Continuous
 62
     7
100
AcDbCircle
 10
481.9734609850769
 20
-327.050100806452
 30
0.0
 40
0.1666666666666779
100
AcDbArc
 50
299.981639368807
 51
60.01836063116369
  0
ARC
  5
98
330
48
100
AcDbEntity
  8
1
  6
Continuous
 62
     7
100
AcDbCircle
 10
465.3071645859571
 20
-327.050100806452
 30
0.0
 40
0.166666666666587
100
AcDbArc
 50
119.9816393688702
 51
240.0183606311591
  0
ARC
  5
99
102
{ACAD_REACTORS
330
A2
102
}
330
48
100
AcDbEntity
  8
1
  6
Continuous
 62
     7
100
AcDbCircle
 10
471.3069794521836
 20
-329.2800796584194
 30
0.0
 40
0.6666666666666288
100
AcDbArc
 50
180.0000000000049
 51
240.0183606311663
  0
ARC
  5
9A
102
{ACAD_REACTORS
330
A3
102
}
330
48
100
AcDbEntity
  8
1
  6
Continuous
 62
     7
100
AcDbCircle
 10
473.640312785517
 20
-326.7167674731188
 30
0.0
 40
0.1666666666666797
100
AcDbArc
 50
209.9999999999447
 51
330.0000000000455
  0
MTEXT
  5
9C
330
48
100
AcDbEntity
  8
1
 62
     7
100
AcDbMText
 10
451.640312785517
 20
-323.2894613856961
 30
0.0
 40
3.0
 41
0.0
 71
     5
 72
     1
  1
Scale
  7
CONVERTER_11
 73
     1
 44
1.32052821128451
  0
MTEXT
  5
9D
330
48
100
AcDbEntity
  8
1
 62
     7
100
AcDbMText
 10
304.9640120967744
 20
-330.800100806452
 30
0.0
 40
3.0
 41
0.0
 71
     4
 72
     1
  1
Sign.
  7
CONVERTER_11
 73
     1
 44
1.32052821128451
  0
MTEXT
  5
9E
330
48
100
AcDbEntity
  8
1
 62
     7
100
AcDbMText
 10
304.9640120967744
 20
-323.2894613856961
 30
0.0
 40
3.0
 41
0.0
 71
     4
 72
     1
  1
Date
  7
CONVERTER_11
 73
     1
 44
1.32052821128451
  0
MTEXT
  5
9F
330
48
100
AcDbEntity
  8
1
 62
     7
100
AcDbMText
 10
346.464012096774
 20
-145.5501008064519
 30
0.0
 40
4.0
 41
0.0
 71
     5
 72
     1
  1
Diritti riservati      All rights reserved
  7
CONVERTER_11
 73
     1
 44
1.32052821128451
  0
HATCH
  5
A0
330
48
100
AcDbEntity
  8
1
  6
Continuous
 62
     7
100
AcDbHatch
 10
0.0
 20
0.0
 30
0.0
210
0.0
220
0.0
230
1.0
  2
SOLID
 70
     1
 71
     1
 91
        1
 92
        1
 93
       14
 72
     2
 10
476.3069794521836
 20
-324.6276006462847
 40
0.3333333333333425
 50
60.01836063115783
 51
180.0
 73
     1
 72
     1
 10
475.9736461188504
 20
-324.6276006462847
 11
475.9736461188504
 21
-329.4726009666194
 72
     2
 10
476.3069794521836
 20
-329.4726009666194
 40
0.3333333333332007
 50
180.0
 51
299.9816393688421
 73
     1
 72
     1
 10
476.4735536033468
 20
-329.7613294953023
 11
477.8068869366801
 21
-328.9920987260717
 72
     2
 10
477.640312785517
 20
-328.7033701973888
 40
0.3333333333333141
 50
299.9816393688337
 51
479.9816393688373
 73
     1
 72
     1
 10
477.4737386343538
 20
-328.4146416687058
 11
476.640312785517
 21
-328.8954642738041
 72
     1
 10
476.640312785517
 20
-328.8954642738041
 11
476.6403127855169
 21
-327.3834341397854
 72
     1
 10
476.6403127855169
 20
-327.3834341397854
 11
477.640312785517
 21
-327.3834341397854
 72
     2
 10
477.640312785517
 20
-327.050100806452
 40
0.3333333333333712
 50
270.0
 51
450.0
 73
     1
 72
     1
 10
477.640312785517
 20
-326.7167674731188
 11
476.6403127855169
 21
-326.7167674731188
 72
     1
 10
476.6403127855169
 20
-326.7167674731188
 11
476.640312785517
 21
-325.2047373391001
 72
     1
 10
476.640312785517
 20
-325.2047373391001
 11
477.4737386343538
 21
-325.6855599441983
 72
     2
 10
477.640312785517
 20
-325.3968314155154
 40
0.3333333333333425
 50
240.0183606311578
 51
420.0183606311565
 73
     1
 72
     1
 10
477.8068869366801
 20
-325.1081028868326
 11
476.4735536033468
 21
-324.3388721176018
 97
       14
330
8C
330
65
330
64
330
63
330
8B
330
62
330
61
330
60
330
8A
330
5F
330
95
330
7D
330
96
330
66
 75
     0
 76
     1
 98
        1
 10
0.0
 20
0.0
  0
HATCH
  5
A1
330
48
100
AcDbEntity
  8
1
  6
Continuous
 62
     7
100
AcDbHatch
 10
0.0
 20
0.0
 30
0.0
210
0.0
220
0.0
230
1.0
  2
SOLID
 70
     1
 71
     1
 91
        1
 92
        1
 93
        5
 72
     2
 10
469.640312785517
 20
-325.3968314155154
 40
0.3333333333332007
 50
0.0
 51
180.0
 73
     1
 72
     1
 10
469.3069794521836
 20
-325.3968314155154
 11
469.3069794521836
 21
-328.7033701973888
 72
     2
 10
469.640312785517
 20
-328.7033701973888
 40
0.3333333333333712
 50
180.0
 51
360.0
 73
     1
 72
     1
 10
469.9736461188502
 20
-328.7033701973888
 11
469.9736461188502
 21
-328.5108488891887
 72
     1
 10
469.9736461188502
 20
-328.5108488891887
 11
469.9736461188502
 21
-325.3968314155154
 97
        5
330
8E
330
67
330
8D
330
68
330
69
 75
     0
 76
     1
 98
        1
 10
0.0
 20
0.0
  0
HATCH
  5
A2
330
48
100
AcDbEntity
  8
1
  6
Continuous
 62
     7
100
AcDbHatch
 10
0.0
 20
0.0
 30
0.0
210
0.0
220
0.0
230
1.0
  2
SOLID
 70
     1
 71
     1
 91
        1
 92
        1
 93
        7
 72
     2
 10
470.9736461188502
 20
-324.6276006462847
 40
0.3333333333334281
 50
0.0
 51
180.0
 73
     1
 72
     1
 10
470.640312785517
 20
-324.6276006462847
 11
470.640312785517
 21
-329.2800796584195
 72
     2
 10
471.3069794521836
 20
-329.2800796584194
 40
0.6666666666666288
 50
180.0000000000049
 51
240.0183606311663
 73
     1
 72
     1
 10
470.9738311498574
 20
-329.8575367157852
 11
473.1404053010205
 21
-331.1074833414563
 72
     2
 10
473.3069794521836
 20
-330.8187548127733
 40
0.3333333333334125
 50
240.0183606311761
 51
420.018360631148
 73
     1
 72
     1
 10
473.4735536033468
 20
-330.5300262840905
 11
471.3069794521836
 21
-329.2800796584194
 72
     1
 10
471.3069794521836
 20
-329.2800796584194
 11
471.3069794521836
 21
-324.6276006462847
 97
        7
330
90
330
6D
330
99
330
6A
330
8F
330
6B
330
6C
 75
     0
 76
     1
 98
        1
 10
0.0
 20
0.0
  0
HATCH
  5
A3
330
48
100
AcDbEntity
  8
1
  6
Continuous
 62
     7
100
AcDbHatch
 10
0.0
 20
0.0
 30
0.0
210
0.0
220
0.0
230
1.0
  2
SOLID
 70
     1
 71
     1
 91
        1
 92
        1
 93
       16
 72
     2
 10
475.0420132397084
 20
-323.8188834944175
 40
0.2649662124752012
 50
210.0000000000182
 51
360.0
 73
     0
 72
     1
 10
475.3069794521836
 20
-323.8188834944175
 11
475.3069794521836
 21
-330.2418317358503
 72
     2
 10
474.9736461188504
 20
-330.2418317358503
 40
0.3333333333334281
 50
0.0
 51
180.0
 73
     0
 72
     1
 10
474.640312785517
 20
-330.2418317358503
 11
474.640312785517
 21
-327.050100806452
 72
     1
 10
474.640312785517
 20
-327.050100806452
 11
474.640312785517
 21
-325.3180499988832
 72
     1
 10
474.640312785517
 20
-325.3180499988832
 11
473.7846503528144
 21
-326.800100806452
 72
     2
 10
473.640312785517
 20
-326.7167674731188
 40
0.1666666666666797
 50
29.99999999995453
 51
150.0000000000553
 73
     0
 72
     1
 10
473.4959752182195
 20
-326.800100806452
 11
472.640312785517
 21
-325.3180499988832
 72
     1
 10
472.640312785517
 20
-325.3180499988832
 11
472.6403127855169
 21
-327.0501008064521
 72
     1
 10
472.6403127855169
 20
-327.0501008064521
 11
472.640312785517
 21
-328.7025157338191
 72
     2
 10
472.3069794521836
 20
-328.7025157338191
 40
0.3333333333334281
 50
0.0
 51
180.0
 73
     0
 72
     1
 10
471.9736461188502
 20
-328.7025157338191
 11
471.9736461188502
 21
-327.050100806452
 72
     1
 10
471.9736461188502
 20
-327.050100806452
 11
471.9736461188502
 21
-323.8188834944175
 72
     2
 10
472.2386123313256
 20
-323.8188834944175
 40
0.2649662124752827
 50
180.0
 51
329.9999999999818
 73
     0
 72
     1
 10
472.4680798024737
 20
-323.6864003881798
 11
473.640312785517
 21
-325.7167674731188
 72
     1
 10
473.640312785517
 20
-325.7167674731188
 11
474.8125457685603
 21
-323.6864003881798
 97
       16
330
73
330
94
330
74
330
72
330
93
330
71
330
79
330
7A
330
9A
330
7B
330
7C
330
70
330
92
330
6F
330
91
330
6E
 75
     0
 76
     1
 98
        1
 10
0.0
 20
0.0
  0
ENDBLK
  5
4A
330
48
100
AcDbEntity
  8
0
100
AcDbBlockEnd
  0
BLOCK
  5
4D
330
4B
100
AcDbEntity
  8
0
100
AcDbBlockBegin
  2
A4_oriz
 70
     0
 10
983.9280241935487
 20
-679.1002016129041
 30
0.0
  3
A4_oriz
  1

  0
INSERT
  5
4C
330
4B
100
AcDbEntity
  8
1
100
AcDbBlockReference
  2
_formato_A4
 10
983.9280241935488
 20
-679.100201612904
 30
0.0
  0
ENDBLK
  5
4E
330
4B
100
AcDbEntity
  8
0
100
AcDbBlockEnd
  0
BLOCK
  5
2DB
330
2D3
100
AcDbEntity
  8
0
100
AcDbBlockBegin
  2
*D3
 70
     1
 10
0.0
 20
0.0
 30
0.0
  3
*D3
  1

  0
LINE
  5
2D4
330
2D3
100
AcDbEntity
  8
1
  6
Continuous
 62
     2
100
AcDbLine
 10
784.9170218791963
 20
-618.8835129280756
 30
0.0
 11
816.9170218791963
 21
-618.8835129280756
 31
0.0
  0
LINE
  5
2D5
330
2D3
100
AcDbEntity
  8
1
  6
Continuous
 62
     2
100
AcDbLine
 10
816.9170218791963
 20
-609.3835129280756
 30
0.0
 11
816.9170218791963
 21
-619.8835129280756
 31
0.0
  0
LINE
  5
2D6
330
2D3
100
AcDbEntity
  8
1
  6
Continuous
 62
     2
100
AcDbLine
 10
784.9170218791963
 20
-609.3835129280756
 30
0.0
 11
784.9170218791963
 21
-619.8835129280756
 31
0.0
  0
SOLID
  5
2D7
330
2D3
100
AcDbEntity
  8
1
 62
     2
100
AcDbTrace
 10
787.9170218791963
 20
-618.4885554353134
 30
0.0
 11
787.9170218791963
 21
-619.2784704208377
 31
0.0
 12
784.9170218791963
 22
-618.8835129280756
 32
0.0
 13
784.9170218791963
 23
-618.8835129280756
 33
0.0
  0
SOLID
  5
2D8
330
2D3
100
AcDbEntity
  8
1
 62
     2
100
AcDbTrace
 10
813.9170218791963
 20
-619.2784704208377
 30
0.0
 11
813.9170218791963
 21
-618.4885554353134
 31
0.0
 12
816.9170218791963
 22
-618.8835129280756
 32
0.0
 13
816.9170218791963
 23
-618.8835129280756
 33
0.0
  0
MTEXT
  5
2DA
330
2D3
100
AcDbEntity
  8
1
 62
     4
100
AcDbMText
 10
798.1570218792036
 20
-616.8835188912839
 30
0.0
 40
3.0
 41
0.0
 71
     7
 72
     1
  1
\C4;M\C4;32
  7
CONVERTER_13
 11
0.9999999999970619
 21
2.424068405545306E-6
 31
0.0
 73
     1
 44
0.60024009603842
  0
ENDBLK
  5
2DC
330
2D3
100
AcDbEntity
  8
0
100
AcDbBlockEnd
  0
BLOCK
  5
2E6
330
2DF
100
AcDbEntity
  8
0
100
AcDbBlockBegin
  2
*D4
 70
     1
 10
0.0
 20
0.0
 30
0.0
  3
*D4
  1

  0
LINE
  5
2E0
330
2DF
100
AcDbEntity
  8
1
  6
Continuous
 62
     2
100
AcDbLine
 10
754.1670218791963
 20
-631.7835129280755
 30
0.0
 11
847.6670218791963
 21
-631.7835129280755
 31
0.0
  0
LINE
  5
2E1
330
2DF
100
AcDbEntity
  8
1
  6
Continuous
 62
     2
100
AcDbLine
 10
754.1670218791963
 20
-554.6335129280775
 30
0.0
 11
754.1670218791963
 21
-632.7835129280755
 31
0.0
  0
LINE
  5
2E2
330
2DF
100
AcDbEntity
  8
1
  6
Continuous
 62
     2
100
AcDbLine
 10
847.6670218791963
 20
-554.6335129280773
 30
0.0
 11
847.6670218791963
 21
-632.7835129280755
 31
0.0
  0
SOLID
  5
2E3
330
2DF
100
AcDbEntity
  8
1
 62
     2
100
AcDbTrace
 10
757.1670218791963
 20
-631.3885554353134
 30
0.0
 11
757.1670218791963
 21
-632.1784704208377
 31
0.0
 12
754.1670218791963
 22
-631.7835129280755
 32
0.0
 13
754.1670218791963
 23
-631.7835129280755
 33
0.0
  0
SOLID
  5
2E4
330
2DF
100
AcDbEntity
  8
1
 62
     2
100
AcDbTrace
 10
844.6670218791963
 20
-632.1784704208377
 30
0.0
 11
844.6670218791963
 21
-631.3885554353134
 31
0.0
 12
847.6670218791963
 22
-631.7835129280755
 32
0.0
 13
847.6670218791963
 23
-631.7835129280755
 33
0.0
  0
MTEXT
  5
2E5
330
2DF
100
AcDbEntity
  8
1
 62
     4
100
AcDbMText
 10
796.7920218791963
 20
-629.4835129280756
 30
0.0
 40
3.0
 41
0.0
 71
     7
 72
     1
  1
93,5
  7
CONVERTER_13
 11
0.9999999999970619
 21
2.424068405545306E-6
 31
0.0
 73
     1
 44
0.60024009603842
  0
ENDBLK
  5
2E7
330
2DF
100
AcDbEntity
  8
0
100
AcDbBlockEnd
  0
BLOCK
  5
2F1
330
2EA
100
AcDbEntity
  8
0
100
AcDbBlockBegin
  2
*D5
 70
     1
 10
0.0
 20
0.0
 30
0.0
  3
*D5
  1

  0
LINE
  5
2EB
330
2EA
100
AcDbEntity
  8
1
  6
Continuous
 62
     2
100
AcDbLine
 10
900.7680220367099
 20
-631.7835129280755
 30
0.0
 11
943.7680220367099
 21
-631.7835129280755
 31
0.0
  0
LINE
  5
2EC
330
2EA
100
AcDbEntity
  8
1
  6
Continuous
 62
     2
100
AcDbLine
 10
900.7680220367099
 20
-606.8835129280806
 30
0.0
 11
900.7680220367099
 21
-632.7835129280755
 31
0.0
  0
LINE
  5
2ED
330
2EA
100
AcDbEntity
  8
1
  6
Continuous
 62
     2
100
AcDbLine
 10
943.7680220367099
 20
-606.8835129280756
 30
0.0
 11
943.7680220367099
 21
-632.7835129280755
 31
0.0
  0
SOLID
  5
2EE
330
2EA
100
AcDbEntity
  8
1
 62
     2
100
AcDbTrace
 10
903.7680220367099
 20
-631.3885554353134
 30
0.0
 11
903.7680220367099
 21
-632.1784704208377
 31
0.0
 12
900.7680220367099
 22
-631.7835129280755
 32
0.0
 13
900.7680220367099
 23
-631.7835129280755
 33
0.0
  0
SOLID
  5
2EF
330
2EA
100
AcDbEntity
  8
1
 62
     2
100
AcDbTrace
 10
940.7680220367099
 20
-632.1784704208377
 30
0.0
 11
940.7680220367099
 21
-631.3885554353134
 31
0.0
 12
943.7680220367099
 22
-631.7835129280755
 32
0.0
 13
943.7680220367099
 23
-631.7835129280755
 33
0.0
  0
MTEXT
  5
2F0
330
2EA
100
AcDbEntity
  8
1
 62
     4
100
AcDbMText
 10
920.0180220367099
 20
-629.7835129280755
 30
0.0
 40
3.0
 41
0.0
 71
     7
 72
     1
  1
43
  7
CONVERTER_13
 11
0.9999999999970619
 21
2.424068405545306E-6
 31
0.0
 73
     1
 44
0.60024009603842
  0
ENDBLK
  5
2F2
330
2EA
100
AcDbEntity
  8
0
100
AcDbBlockEnd
  0
BLOCK
  5
2FC
330
2F5
100
AcDbEntity
  8
0
100
AcDbBlockBegin
  2
*D6
 70
     1
 10
0.0
 20
0.0
 30
0.0
  3
*D6
  1

  0
LINE
  5
2F6
330
2F5
100
AcDbEntity
  8
1
  6
Continuous
 62
     2
100
AcDbLine
 10
725.9190955953321
 20
-608.8835129280793
 30
0.0
 11
725.9190955953321
 21
-527.3852623067299
 31
0.0
  0
LINE
  5
2F7
330
2F5
100
AcDbEntity
  8
1
  6
Continuous
 62
     2
100
AcDbLine
 10
746.9712496749265
 20
-527.3852623067299
 30
0.0
 11
724.9190955953321
 21
-527.3852623067299
 31
0.0
  0
LINE
  5
2F8
330
2F5
100
AcDbEntity
  8
1
  6
Continuous
 62
     2
100
AcDbLine
 10
764.2514572662507
 20
-608.8835129280793
 30
0.0
 11
724.9190955953321
 21
-608.8835129280793
 31
0.0
  0
SOLID
  5
2F9
330
2F5
100
AcDbEntity
  8
1
 62
     2
100
AcDbTrace
 10
725.52413810257
 20
-605.8835129280793
 30
0.0
 11
726.3140530880943
 21
-605.8835129280793
 31
0.0
 12
725.9190955953321
 22
-608.8835129280793
 32
0.0
 13
725.9190955953321
 23
-608.8835129280793
 33
0.0
  0
SOLID
  5
2FA
330
2F5
100
AcDbEntity
  8
1
 62
     2
100
AcDbTrace
 10
726.3140530880943
 20
-530.3852623067299
 30
0.0
 11
725.52413810257
 21
-530.3852623067299
 31
0.0
 12
725.9190955953321
 22
-527.3852623067299
 32
0.0
 13
725.9190955953321
 23
-527.3852623067299
 33
0.0
  0
MTEXT
  5
2FB
330
2F5
100
AcDbEntity
  8
1
 62
     4
100
AcDbMText
 10
723.619095595332
 20
-571.9593876174047
 30
0.0
 40
3.0
 41
0.0
 71
     7
 72
     1
  1
81,5
  7
CONVERTER_13
 11
0.0
 21
1.0
 31
0.0
 73
     1
 44
0.60024009603842
  0
ENDBLK
  5
2FD
330
2F5
100
AcDbEntity
  8
0
100
AcDbBlockEnd
  0
BLOCK
  5
307
330
300
100
AcDbEntity
  8
0
100
AcDbBlockBegin
  2
*D7
 70
     1
 10
0.0
 20
0.0
 30
0.0
  3
*D7
  1

  0
LINE
  5
301
330
300
100
AcDbEntity
  8
1
  6
Continuous
 62
     2
100
AcDbLine
 10
893.3714786171056
 20
-503.5834388630769
 30
0.0
 11
951.3714786171056
 21
-503.5834388630769
 31
0.0
  0
LINE
  5
302
330
300
100
AcDbEntity
  8
1
  6
Continuous
 62
     2
100
AcDbLine
 10
951.3714786171056
 20
-513.0834388630714
 30
0.0
 11
951.3714786171056
 21
-502.5834388630769
 31
0.0
  0
LINE
  5
303
330
300
100
AcDbEntity
  8
1
  6
Continuous
 62
     2
100
AcDbLine
 10
893.3714786171056
 20
-513.0834388630782
 30
0.0
 11
893.3714786171056
 21
-502.5834388630769
 31
0.0
  0
SOLID
  5
304
330
300
100
AcDbEntity
  8
1
 62
     2
100
AcDbTrace
 10
896.3714786171056
 20
-503.1884813703147
 30
0.0
 11
896.3714786171056
 21
-503.978396355839
 31
0.0
 12
893.3714786171056
 22
-503.5834388630769
 32
0.0
 13
893.3714786171056
 23
-503.5834388630769
 33
0.0
  0
SOLID
  5
305
330
300
100
AcDbEntity
  8
1
 62
     2
100
AcDbTrace
 10
948.3714786171056
 20
-503.978396355839
 30
0.0
 11
948.3714786171056
 21
-503.1884813703147
 31
0.0
 12
951.3714786171056
 22
-503.5834388630769
 32
0.0
 13
951.3714786171056
 23
-503.5834388630769
 33
0.0
  0
MTEXT
  5
306
330
300
100
AcDbEntity
  8
1
 62
     4
100
AcDbMText
 10
920.1214786171056
 20
-501.5834388630769
 30
0.0
 40
3.0
 41
0.0
 71
     7
 72
     1
  1
58
  7
CONVERTER_13
 11
0.9999999999970619
 21
2.424068405545306E-6
 31
0.0
 73
     1
 44
0.60024009603842
  0
ENDBLK
  5
308
330
300
100
AcDbEntity
  8
0
100
AcDbBlockEnd
  0
BLOCK
  5
312
330
30B
100
AcDbEntity
  8
0
100
AcDbBlockBegin
  2
*D8
 70
     1
 10
0.0
 20
0.0
 30
0.0
  3
*D8
  1

  0
LINE
  5
30C
330
30B
100
AcDbEntity
  8
1
  6
Continuous
 62
     2
100
AcDbLine
 10
865.2036558333846
 20
-499.933706940678
 30
0.0
 11
736.6303879250102
 21
-499.933706940678
 31
0.0
  0
LINE
  5
30D
330
30B
100
AcDbEntity
  8
1
  6
Continuous
 62
     2
100
AcDbLine
 10
865.2036558333846
 20
-538.08343886308
 30
0.0
 11
865.2036558333846
 21
-498.933706940678
 31
0.0
  0
LINE
  5
30E
330
30B
100
AcDbEntity
  8
1
  6
Continuous
 62
     2
100
AcDbLine
 10
736.6303879250102
 20
-538.08343886308
 30
0.0
 11
736.6303879250102
 21
-498.933706940678
 31
0.0
  0
SOLID
  5
30F
330
30B
100
AcDbEntity
  8
1
 62
     2
100
AcDbTrace
 10
862.2036558333846
 20
-500.3286644334402
 30
0.0
 11
862.2036558333846
 21
-499.5387494479158
 31
0.0
 12
865.2036558333846
 22
-499.933706940678
 32
0.0
 13
865.2036558333846
 23
-499.933706940678
 33
0.0
  0
SOLID
  5
310
330
30B
100
AcDbEntity
  8
1
 62
     2
100
AcDbTrace
 10
739.6303879250102
 20
-499.5387494479158
 30
0.0
 11
739.6303879250102
 21
-500.3286644334402
 31
0.0
 12
736.6303879250102
 22
-499.933706940678
 32
0.0
 13
736.6303879250102
 23
-499.933706940678
 33
0.0
  0
MTEXT
  5
311
330
30B
100
AcDbEntity
  8
1
 62
     4
100
AcDbMText
 10
797.7670218791974
 20
-497.933706940678
 30
0.0
 40
3.0
 41
0.0
 71
     7
 72
     1
  1
130
  7
CONVERTER_13
 11
0.9999999999970619
 21
2.424068405545306E-6
 31
0.0
 73
     1
 44
0.60024009603842
  0
ENDBLK
  5
313
330
30B
100
AcDbEntity
  8
0
100
AcDbBlockEnd
  0
ENDSEC
  0
SECTION
  2
ENTITIES
  0
INSERT
  5
4F
330
1F
100
AcDbEntity
  8
0
100
AcDbBlockReference
  2
A4_oriz
 10
983.9280241935487
 20
-679.1002016129041
 30
0.0
  0
LINE
  5
A4
330
1F
100
AcDbEntity
  8
Sichtbare_Kanten_TC_020513_DIN_
  6
Continuous
 62
     7
100
AcDbLine
 10
800.9170218791963
 20
-587.1335129280752
 30
0.0
 11
802.0420218791963
 21
-588.6870927417611
 31
0.0
  0
LINE
  5
A5
330
1F
100
AcDbEntity
  8
Sichtbare_Kanten_TC_020513_DIN_
  6
Continuous
 62
     7
100
AcDbLine
 10
802.0420218791963
 20
-588.6870927417611
 30
0.0
 11
802.0420218791963
 21
-584.6967338817121
 31
0.0
  0
LINE
  5
A6
330
1F
100
AcDbEntity
  8
Sichtbare_Kanten_TC_020513_DIN_
  6
Continuous
 62
     7
100
AcDbLine
 10
802.7920218791963
 20
-584.6967338817121
 30
0.0
 11
802.7920218791963
 21
-589.8443304359772
 31
0.0
  0
LINE
  5
A7
330
1F
100
AcDbEntity
  8
Sichtbare_Kanten_TC_020513_DIN_
  6
Continuous
 62
     7
100
AcDbLine
 10
802.1132930197065
 20
-590.0642708367961
 30
0.0
 11
800.9170218791963
 21
-588.412268440716
 31
0.0
  0
LINE
  5
A8
330
1F
100
AcDbEntity
  8
Sichtbare_Kanten_TC_020513_DIN_
  6
Continuous
 62
     7
100
AcDbLine
 10
800.9170218791963
 20
-588.412268440716
 30
0.0
 11
799.7207507386873
 21
-590.0642708367961
 31
0.0
  0
LINE
  5
A9
330
1F
100
AcDbEntity
  8
Sichtbare_Kanten_TC_020513_DIN_
  6
Continuous
 62
     7
100
AcDbLine
 10
799.0420218791963
 20
-589.8443304359772
 30
0.0
 11
799.0420218791963
 21
-582.9226954201741
 31
0.0
  0
LINE
  5
AA
330
1F
100
AcDbEntity
  8
Sichtbare_Kanten_TC_020513_DIN_
  6
Continuous
 62
     7
100
AcDbLine
 10
799.7920218791963
 20
-582.9226954201741
 30
0.0
 11
799.7920218791963
 21
-588.6870927417611
 31
0.0
  0
LINE
  5
AB
330
1F
100
AcDbEntity
  8
Sichtbare_Kanten_TC_020513_DIN_
  6
Continuous
 62
     7
100
AcDbLine
 10
799.7920218791963
 20
-588.6870927417611
 30
0.0
 11
800.9170218791963
 21
-587.1335129280752
 31
0.0
  0
LINE
  5
AC
330
1F
100
AcDbEntity
  8
Sichtbare_Kanten_TC_020513_DIN_
  6
Continuous
 62
     7
100
AcDbLine
 10
803.6170218791966
 20
-588.9356765898232
 30
0.0
 11
803.6170218791966
 21
-584.0479357380531
 31
0.0
  0
LINE
  5
AD
330
1F
100
AcDbEntity
  8
Sichtbare_Kanten_TC_020513_DIN_
  6
Continuous
 62
     7
100
AcDbLine
 10
803.6170218791966
 20
-584.0479357380531
 30
0.0
 11
800.7296259591386
 21
-582.3821303995571
 31
0.0
  0
LINE
  5
AE
330
1F
100
AcDbEntity
  8
Sichtbare_Kanten_TC_020513_DIN_
  6
Continuous
 62
     7
100
AcDbLine
 10
801.1044177992554
 20
-581.7324912100211
 30
0.0
 11
804.1794177992555
 21
-583.5065296715592
 31
0.0
  0
LINE
  5
AF
330
1F
100
AcDbEntity
  8
Sichtbare_Kanten_TC_020513_DIN_
  6
Continuous
 62
     7
100
AcDbLine
 10
804.3670218791966
 20
-583.8313492663272
 30
0.0
 11
804.3670218791966
 21
-588.9356765898232
 31
0.0
  0
LINE
  5
B0
330
1F
100
AcDbEntity
  8
Sichtbare_Kanten_TC_020513_DIN_
  6
Continuous
 62
     7
100
AcDbLine
 10
810.6670218791963
 20
-586.3835129280752
 30
0.0
 11
800.9170218791963
 21
-592.0085129280752
 31
0.0
  0
LINE
  5
B1
330
1F
100
AcDbEntity
  8
Sichtbare_Kanten_TC_020513_DIN_
  6
Continuous
 62
     7
100
AcDbLine
 10
800.9170218791963
 20
-592.0085129280752
 30
0.0
 11
791.1670218791963
 21
-586.3835129280752
 31
0.0
  0
LINE
  5
B2
330
1F
100
AcDbEntity
  8
Sichtbare_Kanten_TC_020513_DIN_
  6
Continuous
 62
     7
100
AcDbLine
 10
791.1670218791963
 20
-586.3835129280752
 30
0.0
 11
800.9170218791963
 21
-580.7585129280752
 31
0.0
  0
LINE
  5
B3
330
1F
100
AcDbEntity
  8
Sichtbare_Kanten_TC_020513_DIN_
  6
Continuous
 62
     7
100
AcDbLine
 10
800.9170218791963
 20
-580.7585129280752
 30
0.0
 11
810.6670218791963
 21
-586.3835129280752
 31
0.0
  0
LINE
  5
B4
330
1F
100
AcDbEntity
  8
Sichtbare_Kanten_TC_020513_DIN_
  6
Continuous
 62
     7
100
AcDbLine
 10
800.9170218791963
 20
-591.5755803025041
 30
0.0
 11
809.9166053282066
 21
-586.3835129280752
 31
0.0
  0
LINE
  5
B5
330
1F
100
AcDbEntity
  8
Sichtbare_Kanten_TC_020513_DIN_
  6
Continuous
 62
     7
100
AcDbLine
 10
791.9174384301874
 20
-586.3835129280752
 30
0.0
 11
800.9170218791963
 21
-591.5755803025041
 31
0.0
  0
LINE
  5
B6
330
1F
100
AcDbEntity
  8
Sichtbare_Kanten_TC_020513_DIN_
  6
Continuous
 62
     7
100
AcDbLine
 10
800.9170218791963
 20
-581.1914455536461
 30
0.0
 11
791.9174384301874
 21
-586.3835129280752
 31
0.0
  0
LINE
  5
B7
330
1F
100
AcDbEntity
  8
Sichtbare_Kanten_TC_020513_DIN_
  6
Continuous
 62
     7
100
AcDbLine
 10
809.9166053282066
 20
-586.3835129280752
 30
0.0
 11
800.9170218791963
 21
-581.1914455536461
 31
0.0
  0
LINE
  5
B8
330
1F
100
AcDbEntity
  8
Sichtbare_Kanten_TC_020513_DIN_
  6
Continuous
 62
     7
100
AcDbLine
 10
805.1170218791966
 20
-588.0702919744382
 30
0.0
 11
805.1170218791966
 21
-584.6967338817121
 31
0.0
  0
LINE
  5
B9
330
1F
100
AcDbEntity
  8
Sichtbare_Kanten_TC_020513_DIN_
  6
Continuous
 62
     7
100
AcDbLine
 10
805.8670218791966
 20
-584.6967338817121
 30
0.0
 11
805.8670218791966
 21
-588.0702919744382
 31
0.0
  0
LINE
  5
BA
330
1F
100
AcDbEntity
  8
Sichtbare_Kanten_TC_020513_DIN_
  6
Continuous
 62
     7
100
AcDbLine
 10
797.7296259591386
 20
-589.3037654153601
 30
0.0
 11
795.4796259591386
 21
-588.0056884922832
 31
0.0
  0
LINE
  5
BB
330
1F
100
AcDbEntity
  8
Sichtbare_Kanten_TC_020513_DIN_
  6
Continuous
 62
     7
100
AcDbLine
 10
795.8544177992554
 20
-587.3560493027472
 30
0.0
 11
797.5420218791963
 21
-588.3296670411752
 31
0.0
  0
LINE
  5
BC
330
1F
100
AcDbEntity
  8
Sichtbare_Kanten_TC_020513_DIN_
  6
Continuous
 62
     7
100
AcDbLine
 10
797.5420218791963
 20
-588.3296670411752
 30
0.0
 11
797.5420218791963
 21
-586.7585129280752
 31
0.0
  0
LINE
  5
BD
330
1F
100
AcDbEntity
  8
Sichtbare_Kanten_TC_020513_DIN_
  6
Continuous
 62
     7
100
AcDbLine
 10
797.5420218791963
 20
-586.7585129280752
 30
0.0
 11
795.6670218791963
 21
-586.7585129280752
 31
0.0
  0
LINE
  5
BE
330
1F
100
AcDbEntity
  8
Sichtbare_Kanten_TC_020513_DIN_
  6
Continuous
 62
     7
100
AcDbLine
 10
795.6670218791963
 20
-586.0085129280752
 30
0.0
 11
797.5420218791963
 21
-586.0085129280752
 31
0.0
  0
LINE
  5
BF
330
1F
100
AcDbEntity
  8
Sichtbare_Kanten_TC_020513_DIN_
  6
Continuous
 62
     7
100
AcDbLine
 10
797.5420218791963
 20
-586.0085129280752
 30
0.0
 11
797.5420218791963
 21
-584.4373588149762
 31
0.0
  0
LINE
  5
C0
330
1F
100
AcDbEntity
  8
Sichtbare_Kanten_TC_020513_DIN_
  6
Continuous
 62
     7
100
AcDbLine
 10
797.5420218791963
 20
-584.4373588149762
 30
0.0
 11
795.8544177992554
 21
-585.4109765534032
 31
0.0
  0
LINE
  5
C1
330
1F
100
AcDbEntity
  8
Sichtbare_Kanten_TC_020513_DIN_
  6
Continuous
 62
     7
100
AcDbLine
 10
795.4796259591386
 20
-584.7613373638671
 30
0.0
 11
797.7296259591386
 21
-583.4632604407901
 31
0.0
  0
LINE
  5
C2
330
1F
100
AcDbEntity
  8
Sichtbare_Kanten_TC_020513_DIN_
  6
Continuous
 62
     7
100
AcDbLine
 10
798.2920218791963
 20
-583.7880800355582
 30
0.0
 11
798.2920218791963
 21
-588.9789458205922
 31
0.0
  0
LINE
  5
C3
330
1F
100
AcDbEntity
  8
0
  6
Continuous
 62
     7
100
AcDbLine
 10
747.4712496749265
 20
-527.3852623067299
 30
0.0
 11
747.4824312125523
 21
-527.3326573081473
 31
0.0
  0
LINE
  5
C4
330
1F
100
AcDbEntity
  8
0
  6
Continuous
 62
     7
100
AcDbLine
 10
943.7680220367017
 20
-532.8735129280753
 30
0.0
 11
900.7680220367017
 21
-532.8735129280802
 31
0.0
  0
LINE
  5
C5
330
1F
100
AcDbEntity
  8
0
  6
Continuous
 62
     7
100
AcDbLine
 10
942.8714786171074
 20
-530.6935619931027
 30
0.0
 11
901.8714786171074
 21
-530.6935619931074
 31
0.0
  0
LINE
  5
C6
330
1F
100
AcDbEntity
  8
0
  6
Continuous
 62
     7
100
AcDbLine
 10
900.7670220367033
 20
-541.7835762180957
 30
0.0
 11
898.8714786171074
 21
-541.7835762180957
 31
0.0
  0
LINE
  5
C7
330
1F
100
AcDbEntity
  8
0
  6
Continuous
 62
     7
100
AcDbLine
 10
900.7670220367015
 20
-536.9835762180957
 30
0.0
 11
898.8714786171074
 21
-536.9835762180958
 31
0.0
  0
LINE
  5
C8
330
1F
100
AcDbEntity
  8
0
  6
Continuous
 62
     7
100
AcDbLine
 10
898.8714786171074
 20
-546.0834388630752
 30
0.0
 11
898.8714786171074
 21
-536.3997118688574
 31
0.0
  0
LINE
  5
C9
330
1F
100
AcDbEntity
  8
0
  6
Continuous
 62
     7
100
AcDbLine
 10
951.3714786171074
 20
-527.4982636960812
 30
0.0
 11
951.3714786171074
 21
-546.0834388630753
 31
0.0
  0
LINE
  5
CA
330
1F
100
AcDbEntity
  8
0
  6
Continuous
 62
     7
100
AcDbLine
 10
893.3714786171056
 20
-513.5834388630782
 30
0.0
 11
893.3714786171056
 21
-513.6515623818873
 31
0.0
  0
LINE
  5
CB
330
1F
100
AcDbEntity
  8
0
  6
Continuous
 62
     7
100
AcDbLine
 10
893.3714786171074
 20
-546.0834388630752
 30
0.0
 11
898.8714786171074
 21
-546.0834388630752
 31
0.0
  0
LINE
  5
CC
330
1F
100
AcDbEntity
  8
0
  6
Continuous
 62
     7
100
AcDbLine
 10
951.3714786171074
 20
-546.0834388630753
 30
0.0
 11
945.8714786171074
 21
-546.0834388630752
 31
0.0
  0
LINE
  5
CD
330
1F
100
AcDbEntity
  8
0
  6
Continuous
 62
     7
100
AcDbLine
 10
943.7690220367019
 20
-536.9835762180958
 30
0.0
 11
945.8714786171074
 21
-536.9835762180958
 31
0.0
  0
LINE
  5
CE
330
1F
100
AcDbEntity
  8
0
  6
Continuous
 62
     7
100
AcDbLine
 10
943.7690220367028
 20
-541.7835762180957
 30
0.0
 11
945.8714786171074
 21
-541.7835762180957
 31
0.0
  0
LINE
  5
CF
330
1F
100
AcDbEntity
  8
0
  6
Continuous
 62
     7
100
AcDbLine
 10
945.8714786171074
 20
-537.5816095939058
 30
0.0
 11
945.8714786171074
 21
-546.0834388630752
 31
0.0
  0
LINE
  5
D0
330
1F
100
AcDbEntity
  8
0
  6
Continuous
 62
     7
100
AcDbLine
 10
945.8714786171074
 20
-533.6935619931022
 30
0.0
 11
945.8714786171074
 21
-537.5816095939058
 31
0.0
  0
LINE
  5
D1
330
1F
100
AcDbEntity
  8
0
  6
Continuous
 62
     7
100
AcDbLine
 10
893.3714786171056
 20
-513.5834388630782
 30
0.0
 11
951.3714786171056
 21
-513.5834388630714
 31
0.0
  0
LINE
  5
D2
330
1F
100
AcDbEntity
  8
0
  6
Continuous
 62
     7
100
AcDbLine
 10
951.3714786171056
 20
-513.5834388630714
 30
0.0
 11
951.3714786171056
 21
-513.6515623818807
 31
0.0
  0
LINE
  5
D3
330
1F
100
AcDbEntity
  8
0
  6
Continuous
 62
     7
100
AcDbLine
 10
951.3714786171056
 20
-514.8550955724991
 30
0.0
 11
951.3714786171056
 21
-513.6515623818807
 31
0.0
  0
LINE
  5
D4
330
1F
100
AcDbEntity
  8
0
  6
Continuous
 62
     7
100
AcDbLine
 10
893.3714786171056
 20
-513.6515623818873
 30
0.0
 11
893.3714786171056
 21
-514.8550955724991
 31
0.0
  0
LINE
  5
D5
330
1F
100
AcDbEntity
  8
0
  6
Continuous
 62
     7
100
AcDbLine
 10
893.3714786171074
 20
-546.0834388630752
 30
0.0
 11
893.3714786171074
 21
-527.5153153442689
 31
0.0
  0
LINE
  5
D6
330
1F
100
AcDbEntity
  8
0
  6
Continuous
 62
     7
100
AcDbLine
 10
898.8714786171074
 20
-536.3997118688574
 30
0.0
 11
898.8714786171074
 21
-533.6935619931078
 31
0.0
  0
LINE
  5
D7
330
1F
100
AcDbEntity
  8
0
  6
Continuous
 62
     7
100
AcDbLine
 10
906.7670220367033
 20
-546.6335129280795
 30
0.0
 11
920.7680220367035
 21
-546.6345129280779
 31
0.0
  0
LINE
  5
D8
330
1F
100
AcDbEntity
  8
0
  6
Continuous
 62
     7
100
AcDbLine
 10
923.7680220367035
 20
-546.6345129280777
 30
0.0
 11
937.7690220367037
 21
-546.633512928076
 31
0.0
  0
LINE
  5
D9
330
1F
100
AcDbEntity
  8
0
  6
Continuous
 62
     7
100
AcDbLine
 10
943.7680220367035
 20
-546.6345128446865
 30
0.0
 11
943.0680220367028
 21
-545.9335129280755
 31
0.0
  0
LINE
  5
DA
330
1F
100
AcDbEntity
  8
0
  6
Continuous
 62
     7
100
AcDbLine
 10
937.7690220367037
 20
-547.633512928076
 30
0.0
 11
923.7680220367035
 21
-547.6325129280776
 31
0.0
  0
LINE
  5
DB
330
1F
100
AcDbEntity
  8
0
  6
Continuous
 62
     7
100
AcDbLine
 10
943.7680220367017
 20
-532.8735129280753
 30
0.0
 11
943.8355425179041
 21
-532.8735129280753
 31
0.0
  0
LINE
  5
DC
330
1F
100
AcDbEntity
  8
0
  6
Continuous
 62
     7
100
AcDbLine
 10
943.7680220367017
 20
-532.8835129280754
 30
0.0
 11
943.7680220367017
 21
-532.8735129280753
 31
0.0
  0
LINE
  5
DD
330
1F
100
AcDbEntity
  8
0
  6
Continuous
 62
     7
100
AcDbLine
 10
900.7091247180349
 20
-530.927891475256
 30
0.0
 11
900.7091247180349
 21
-532.8735129280802
 31
0.0
  0
LINE
  5
DE
330
1F
100
AcDbEntity
  8
0
  6
Continuous
 62
     7
100
AcDbLine
 10
900.7680220367017
 20
-532.8735129280802
 30
0.0
 11
900.7091247180349
 21
-532.8735129280802
 31
0.0
  0
LINE
  5
DF
330
1F
100
AcDbEntity
  8
0
  6
Continuous
 62
     7
100
AcDbLine
 10
900.7680220367017
 20
-532.8735129280802
 30
0.0
 11
900.7680220367017
 21
-532.8835129280802
 31
0.0
  0
LINE
  5
E0
330
1F
100
AcDbEntity
  8
0
  6
Continuous
 62
     7
100
AcDbLine
 10
900.7670221204069
 20
-547.6325130111542
 30
0.0
 11
901.4680220363896
 21
-548.3335129283944
 31
0.0
  0
LINE
  5
E1
330
1F
100
AcDbEntity
  8
0
  6
Continuous
 62
     7
100
AcDbLine
 10
900.7680220367035
 20
-545.1335129280802
 30
0.0
 11
901.4680220367025
 21
-545.8335129280802
 31
0.0
  0
LINE
  5
E2
330
1F
100
AcDbEntity
  8
0
  6
Continuous
 62
     7
100
AcDbLine
 10
943.7680220367035
 20
-551.6335129280753
 30
0.0
 11
923.7680220367035
 21
-551.6335129280777
 31
0.0
  0
LINE
  5
E3
330
1F
100
AcDbEntity
  8
0
  6
Continuous
 62
     7
100
AcDbLine
 10
923.7680220367035
 20
-552.6335129280777
 30
0.0
 11
943.7680220367035
 21
-552.6335129280754
 31
0.0
  0
LINE
  5
E4
330
1F
100
AcDbEntity
  8
0
  6
Continuous
 62
     7
100
AcDbLine
 10
943.7680220367035
 20
-546.6345128446865
 30
0.0
 11
943.7680220367035
 21
-547.6335129280754
 31
0.0
  0
LINE
  5
E5
330
1F
100
AcDbEntity
  8
0
  6
Continuous
 62
     7
100
AcDbLine
 10
943.7680220367035
 20
-549.1335129280754
 30
0.0
 11
943.0680220370175
 21
-548.4335129277614
 31
0.0
  0
LINE
  5
E6
330
1F
100
AcDbEntity
  8
0
  6
Continuous
 62
     7
100
AcDbLine
 10
943.7680220363898
 20
-554.1335129283896
 30
0.0
 11
943.0680220367046
 21
-553.4335129280755
 31
0.0
  0
LINE
  5
E7
330
1F
100
AcDbEntity
  8
0
  6
Continuous
 62
     7
100
AcDbLine
 10
943.7680220367054
 20
-569.8835129280745
 30
0.0
 11
943.7680220367054
 21
-555.8396318462915
 31
0.0
  0
LINE
  5
E8
330
1F
100
AcDbEntity
  8
0
  6
Continuous
 62
     7
100
AcDbLine
 10
943.7680220363898
 20
-554.1335129283896
 30
0.0
 11
943.7680220367054
 21
-555.8396318462915
 31
0.0
  0
LINE
  5
E9
330
1F
100
AcDbEntity
  8
0
  6
Continuous
 62
     7
100
AcDbLine
 10
943.7680220367099
 20
-606.3835129280756
 30
0.0
 11
943.768022036709
 21
-602.8835129280756
 31
0.0
  0
LINE
  5
EA
330
1F
100
AcDbEntity
  8
0
  6
Continuous
 62
     7
100
AcDbLine
 10
942.7680220367054
 20
-570.8835129280756
 30
0.0
 11
943.7680220367054
 21
-569.8835129280745
 31
0.0
  0
LINE
  5
EB
330
1F
100
AcDbEntity
  8
0
  6
Continuous
 62
     7
100
AcDbLine
 10
942.768022036709
 20
-601.8835129280758
 30
0.0
 11
942.7680220367054
 21
-570.8835129280756
 31
0.0
  0
LINE
  5
EC
330
1F
100
AcDbEntity
  8
0
  6
Continuous
 62
     7
100
AcDbLine
 10
937.7680220367099
 20
-608.8835129280764
 30
0.0
 11
941.2680220367099
 21
-608.8835129280759
 31
0.0
  0
LINE
  5
ED
330
1F
100
AcDbEntity
  8
0
  6
Continuous
 62
     7
100
AcDbLine
 10
923.7680220367054
 20
-554.1335129280777
 30
0.0
 11
943.7680220363898
 21
-554.1335129283896
 31
0.0
  0
LINE
  5
EE
330
1F
100
AcDbEntity
  8
0
  6
Continuous
 62
     7
100
AcDbLine
 10
943.0680220367046
 20
-553.4335129280755
 30
0.0
 11
943.0680220367046
 21
-553.3335129280755
 31
0.0
  0
LINE
  5
EF
330
1F
100
AcDbEntity
  8
0
  6
Continuous
 62
     7
100
AcDbLine
 10
943.0680220370175
 20
-548.4335129277614
 30
0.0
 11
943.0680220370175
 21
-548.3335129283896
 31
0.0
  0
LINE
  5
F0
330
1F
100
AcDbEntity
  8
0
  6
Continuous
 62
     7
100
AcDbLine
 10
943.7680220367035
 20
-552.6335129280754
 30
0.0
 11
943.0680220367046
 21
-553.3335129280755
 31
0.0
  0
LINE
  5
F1
330
1F
100
AcDbEntity
  8
0
  6
Continuous
 62
     7
100
AcDbLine
 10
943.768022036709
 20
-602.8835129280756
 30
0.0
 11
942.768022036709
 21
-601.8835129280758
 31
0.0
  0
LINE
  5
F2
330
1F
100
AcDbEntity
  8
0
  6
Continuous
 62
     7
100
AcDbLine
 10
943.8355425179031
 20
-530.8526852278801
 30
0.0
 11
943.8355425179041
 21
-532.8735129280753
 31
0.0
  0
LINE
  5
F3
330
1F
100
AcDbEntity
  8
0
  6
Continuous
 62
     7
100
AcDbLine
 10
943.0680220367028
 20
-545.9335129280755
 30
0.0
 11
943.0680220370175
 21
-545.8335129283896
 31
0.0
  0
LINE
  5
F4
330
1F
100
AcDbEntity
  8
0
  6
Continuous
 62
     7
100
AcDbLine
 10
937.7690220367037
 20
-546.633512928076
 30
0.0
 11
943.7680220367035
 21
-546.6345128446865
 31
0.0
  0
LINE
  5
F5
330
1F
100
AcDbEntity
  8
0
  6
Continuous
 62
     7
100
AcDbLine
 10
943.7690220367019
 20
-535.4835129280754
 30
0.0
 11
943.7680220367017
 21
-532.8835129280754
 31
0.0
  0
LINE
  5
F6
330
1F
100
AcDbEntity
  8
0
  6
Continuous
 62
     7
100
AcDbLine
 10
943.7680220367035
 20
-545.1335129280754
 30
0.0
 11
943.7690220367028
 21
-543.2835129280754
 31
0.0
  0
LINE
  5
F7
330
1F
100
AcDbEntity
  8
0
  6
Continuous
 62
     7
100
AcDbLine
 10
943.7690220367028
 20
-543.2835129280754
 30
0.0
 11
943.7690220367019
 21
-535.4835129280754
 31
0.0
  0
LINE
  5
F8
330
1F
100
AcDbEntity
  8
0
  6
Continuous
 62
     7
100
AcDbLine
 10
937.768021953382
 20
-545.1335129274479
 30
0.0
 11
943.7680220367035
 21
-545.1335129280754
 31
0.0
  0
LINE
  5
F9
330
1F
100
AcDbEntity
  8
0
  6
Continuous
 62
     7
100
AcDbLine
 10
943.7680220367035
 20
-550.1335129280754
 30
0.0
 11
943.7680220367035
 21
-549.1335129280754
 31
0.0
  0
LINE
  5
FA
330
1F
100
AcDbEntity
  8
0
  6
Continuous
 62
     7
100
AcDbLine
 10
943.7680220367035
 20
-550.1335129280754
 30
0.0
 11
943.0680220370175
 21
-550.8335129283896
 31
0.0
  0
LINE
  5
FB
330
1F
100
AcDbEntity
  8
0
  6
Continuous
 62
     7
100
AcDbLine
 10
943.7680220367035
 20
-550.1335129280754
 30
0.0
 11
923.7680220367035
 21
-550.1335129280777
 31
0.0
  0
LINE
  5
FC
330
1F
100
AcDbEntity
  8
0
  6
Continuous
 62
     7
100
AcDbLine
 10
943.7680220367035
 20
-549.1335129280754
 30
0.0
 11
923.7680220367035
 21
-549.1335129280777
 31
0.0
  0
LINE
  5
FD
330
1F
100
AcDbEntity
  8
0
  6
Continuous
 62
     7
100
AcDbLine
 10
923.7680220367035
 20
-551.6335129280777
 30
0.0
 11
923.7680220367035
 21
-550.9335129280777
 31
0.0
  0
LINE
  5
FE
330
1F
100
AcDbEntity
  8
0
  6
Continuous
 62
     7
100
AcDbLine
 10
923.7680220367035
 20
-550.9335129280777
 30
0.0
 11
923.7680220367035
 21
-550.8335129280778
 31
0.0
  0
LINE
  5
FF
330
1F
100
AcDbEntity
  8
0
  6
Continuous
 62
     7
100
AcDbLine
 10
923.7680220367035
 20
-550.8335129280778
 30
0.0
 11
923.7680220367035
 21
-550.1335129280777
 31
0.0
  0
LINE
  5
100
330
1F
100
AcDbEntity
  8
0
  6
Continuous
 62
     7
100
AcDbLine
 10
943.7680220367035
 20
-551.6335129280753
 30
0.0
 11
943.7680220367035
 21
-552.6335129280754
 31
0.0
  0
LINE
  5
101
330
1F
100
AcDbEntity
  8
0
  6
Continuous
 62
     7
100
AcDbLine
 10
943.0680220367046
 20
-550.9335129280755
 30
0.0
 11
943.0680220370175
 21
-550.8335129283896
 31
0.0
  0
LINE
  5
102
330
1F
100
AcDbEntity
  8
0
  6
Continuous
 62
     7
100
AcDbLine
 10
943.7680220367035
 20
-551.6335129280753
 30
0.0
 11
943.0680220367046
 21
-550.9335129280755
 31
0.0
  0
LINE
  5
103
330
1F
100
AcDbEntity
  8
0
  6
Continuous
 62
     7
100
AcDbLine
 10
943.7680220367035
 20
-547.6335129280754
 30
0.0
 11
937.7690220367037
 21
-547.633512928076
 31
0.0
  0
LINE
  5
104
330
1F
100
AcDbEntity
  8
0
  6
Continuous
 62
     7
100
AcDbLine
 10
943.7680220367035
 20
-547.6335129280754
 30
0.0
 11
943.0680220370175
 21
-548.3335129283896
 31
0.0
  0
LINE
  5
105
330
1F
100
AcDbEntity
  8
0
  6
Continuous
 62
     7
100
AcDbLine
 10
943.7680220367035
 20
-545.1335129280754
 30
0.0
 11
943.0680220370175
 21
-545.8335129283896
 31
0.0
  0
LINE
  5
106
330
1F
100
AcDbEntity
  8
0
  6
Continuous
 62
     7
100
AcDbLine
 10
920.7680220367054
 20
-554.133512928078
 30
0.0
 11
900.7680220370191
 21
-554.1335129283943
 31
0.0
  0
LINE
  5
107
330
1F
100
AcDbEntity
  8
0
  6
Continuous
 62
     7
100
AcDbLine
 10
900.7680220367035
 20
-551.6335129280802
 30
0.0
 11
920.7680220367035
 21
-551.633512928078
 31
0.0
  0
LINE
  5
108
330
1F
100
AcDbEntity
  8
0
  6
Continuous
 62
     7
100
AcDbLine
 10
900.7680220367035
 20
-546.6325128453734
 30
0.0
 11
906.7670220367033
 21
-546.6335129280795
 31
0.0
  0
LINE
  5
109
330
1F
100
AcDbEntity
  8
0
  6
Continuous
 62
     7
100
AcDbLine
 10
920.7680220367035
 20
-552.633512928078
 30
0.0
 11
900.7680220367035
 21
-552.6335129280802
 31
0.0
  0
LINE
  5
10A
330
1F
100
AcDbEntity
  8
0
  6
Continuous
 62
     7
100
AcDbLine
 10
900.7680220370191
 20
-554.1335129283943
 30
0.0
 11
901.4680220367043
 21
-553.4335129280802
 31
0.0
  0
LINE
  5
10B
330
1F
100
AcDbEntity
  8
0
  6
Continuous
 62
     7
100
AcDbLine
 10
900.7680220367035
 20
-551.6335129280802
 30
0.0
 11
901.4680220367043
 21
-550.9335129280802
 31
0.0
  0
LINE
  5
10C
330
1F
100
AcDbEntity
  8
0
  6
Continuous
 62
     7
100
AcDbLine
 10
900.7680220370191
 20
-554.1335129283943
 30
0.0
 11
900.7680220367054
 21
-555.8396318462964
 31
0.0
  0
LINE
  5
10D
330
1F
100
AcDbEntity
  8
0
  6
Continuous
 62
     7
100
AcDbLine
 10
900.7680220367035
 20
-552.6335129280802
 30
0.0
 11
901.4680220363896
 21
-553.3335129283944
 31
0.0
  0
LINE
  5
10E
330
1F
100
AcDbEntity
  8
0
  6
Continuous
 62
     7
100
AcDbLine
 10
900.7680220367035
 20
-551.6335129280802
 30
0.0
 11
900.7680220367035
 21
-552.6335129280802
 31
0.0
  0
LINE
  5
10F
330
1F
100
AcDbEntity
  8
0
  6
Continuous
 62
     7
100
AcDbLine
 10
900.7680220367054
 20
-555.8396318462964
 30
0.0
 11
900.7680220367054
 21
-569.8835129280807
 31
0.0
  0
LINE
  5
110
330
1F
100
AcDbEntity
  8
0
  6
Continuous
 62
     7
100
AcDbLine
 10
901.4680220367025
 20
-545.8335129280802
 30
0.0
 11
901.4680220367025
 21
-545.9335129280802
 31
0.0
  0
LINE
  5
111
330
1F
100
AcDbEntity
  8
0
  6
Continuous
 62
     7
100
AcDbLine
 10
900.7680220367054
 20
-569.8835129280807
 30
0.0
 11
901.7680220367054
 21
-570.8835129280804
 31
0.0
  0
LINE
  5
112
330
1F
100
AcDbEntity
  8
0
  6
Continuous
 62
     7
100
AcDbLine
 10
906.7680220367099
 20
-608.8835129280798
 30
0.0
 11
903.2680220367099
 21
-608.8835129280801
 31
0.0
  0
LINE
  5
113
330
1F
100
AcDbEntity
  8
0
  6
Continuous
 62
     7
100
AcDbLine
 10
900.768022036709
 20
-602.8835129280806
 30
0.0
 11
900.7680220367099
 21
-606.3835129280806
 31
0.0
  0
LINE
  5
114
330
1F
100
AcDbEntity
  8
0
  6
Continuous
 62
     7
100
AcDbLine
 10
901.768022036709
 20
-601.8835129280804
 30
0.0
 11
900.768022036709
 21
-602.8835129280806
 31
0.0
  0
LINE
  5
115
330
1F
100
AcDbEntity
  8
0
  6
Continuous
 62
     7
100
AcDbLine
 10
900.7680220370182
 20
-549.1335129283943
 30
0.0
 11
900.7680220367035
 21
-550.1335129280802
 31
0.0
  0
LINE
  5
116
330
1F
100
AcDbEntity
  8
0
  6
Continuous
 62
     7
100
AcDbLine
 10
900.7670221204069
 20
-547.6325130111542
 30
0.0
 11
900.7680220367035
 21
-546.6325128453734
 31
0.0
  0
LINE
  5
117
330
1F
100
AcDbEntity
  8
0
  6
Continuous
 62
     7
100
AcDbLine
 10
900.7670220367033
 20
-543.2835129280803
 30
0.0
 11
900.7680220367035
 21
-545.1335129280802
 31
0.0
  0
LINE
  5
118
330
1F
100
AcDbEntity
  8
0
  6
Continuous
 62
     7
100
AcDbLine
 10
900.7680220367017
 20
-532.8835129280802
 30
0.0
 11
900.7670220367015
 21
-535.4835129280802
 31
0.0
  0
LINE
  5
119
330
1F
100
AcDbEntity
  8
0
  6
Continuous
 62
     7
100
AcDbLine
 10
900.7670220367015
 20
-535.4835129280802
 30
0.0
 11
900.7670220367033
 21
-543.2835129280803
 31
0.0
  0
LINE
  5
11A
330
1F
100
AcDbEntity
  8
0
  6
Continuous
 62
     7
100
AcDbLine
 10
900.7680220367035
 20
-546.6325128453734
 30
0.0
 11
901.4680220367025
 21
-545.9335129280802
 31
0.0
  0
LINE
  5
11B
330
1F
100
AcDbEntity
  8
0
  6
Continuous
 62
     7
100
AcDbLine
 10
900.7680220370182
 20
-549.1335129283943
 30
0.0
 11
901.4680220367043
 21
-548.4335129280802
 31
0.0
  0
LINE
  5
11C
330
1F
100
AcDbEntity
  8
0
  6
Continuous
 62
     7
100
AcDbLine
 10
900.7680220367035
 20
-550.1335129280802
 30
0.0
 11
901.4680220363896
 21
-550.8335129283943
 31
0.0
  0
LINE
  5
11D
330
1F
100
AcDbEntity
  8
0
  6
Continuous
 62
     7
100
AcDbLine
 10
937.768021953382
 20
-545.1335129274479
 30
0.0
 11
923.7680220367035
 21
-545.1325129280776
 31
0.0
  0
LINE
  5
11E
330
1F
100
AcDbEntity
  8
0
  6
Continuous
 62
     7
100
AcDbLine
 10
923.7680220367035
 20
-545.9335129280777
 30
0.0
 11
923.7680220367035
 21
-545.8335129280778
 31
0.0
  0
LINE
  5
11F
330
1F
100
AcDbEntity
  8
0
  6
Continuous
 62
     7
100
AcDbLine
 10
923.7680220367035
 20
-546.6345129280777
 30
0.0
 11
923.7680220367035
 21
-545.9335129280777
 31
0.0
  0
LINE
  5
120
330
1F
100
AcDbEntity
  8
0
  6
Continuous
 62
     7
100
AcDbLine
 10
923.7680220367035
 20
-545.8335129280778
 30
0.0
 11
923.7680220367035
 21
-545.1325129280776
 31
0.0
  0
LINE
  5
121
330
1F
100
AcDbEntity
  8
0
  6
Continuous
 62
     7
100
AcDbLine
 10
920.7680220367035
 20
-545.833512928078
 30
0.0
 11
920.7680220367035
 21
-545.933512928078
 31
0.0
  0
LINE
  5
122
330
1F
100
AcDbEntity
  8
0
  6
Continuous
 62
     7
100
AcDbLine
 10
920.7680220367035
 20
-545.1325129280781
 30
0.0
 11
920.7680220367035
 21
-545.833512928078
 31
0.0
  0
LINE
  5
123
330
1F
100
AcDbEntity
  8
0
  6
Continuous
 62
     7
100
AcDbLine
 10
920.7680220367035
 20
-545.933512928078
 30
0.0
 11
920.7680220367035
 21
-546.6345129280779
 31
0.0
  0
LINE
  5
124
330
1F
100
AcDbEntity
  8
0
  6
Continuous
 62
     7
100
AcDbLine
 10
900.7680220367035
 20
-545.1335129280802
 30
0.0
 11
906.7670220367033
 21
-545.1335129280795
 31
0.0
  0
LINE
  5
125
330
1F
100
AcDbEntity
  8
0
  6
Continuous
 62
     7
100
AcDbLine
 10
920.7680220367035
 20
-545.1325129280781
 30
0.0
 11
906.7670220367033
 21
-545.1335129280795
 31
0.0
  0
LINE
  5
126
330
1F
100
AcDbEntity
  8
0
  6
Continuous
 62
     7
100
AcDbLine
 10
901.7680220367054
 20
-570.8835129280804
 30
0.0
 11
901.768022036709
 21
-601.8835129280804
 31
0.0
  0
LINE
  5
127
330
1F
100
AcDbEntity
  8
0
  6
Continuous
 62
     7
100
AcDbLine
 10
923.7680220367035
 20
-548.4335129280777
 30
0.0
 11
923.7680220367035
 21
-548.3335129280778
 31
0.0
  0
LINE
  5
128
330
1F
100
AcDbEntity
  8
0
  6
Continuous
 62
     7
100
AcDbLine
 10
923.7680220367035
 20
-549.1335129280777
 30
0.0
 11
923.7680220367035
 21
-548.4335129280777
 31
0.0
  0
LINE
  5
129
330
1F
100
AcDbEntity
  8
0
  6
Continuous
 62
     7
100
AcDbLine
 10
923.7680220367035
 20
-548.3335129280778
 30
0.0
 11
923.7680220367035
 21
-547.6325129280776
 31
0.0
  0
LINE
  5
12A
330
1F
100
AcDbEntity
  8
0
  6
Continuous
 62
     7
100
AcDbLine
 10
937.7680220367099
 20
-608.8835129280764
 30
0.0
 11
906.7680220367099
 21
-608.8835129280798
 31
0.0
  0
LINE
  5
12B
330
1F
100
AcDbEntity
  8
0
  6
Continuous
 62
     7
100
AcDbLine
 10
923.7680220367054
 20
-553.4335129280777
 30
0.0
 11
923.7680220367054
 21
-553.3335129280778
 31
0.0
  0
LINE
  5
12C
330
1F
100
AcDbEntity
  8
0
  6
Continuous
 62
     7
100
AcDbLine
 10
923.7680220367054
 20
-554.1335129280777
 30
0.0
 11
923.7680220367054
 21
-553.4335129280777
 31
0.0
  0
LINE
  5
12D
330
1F
100
AcDbEntity
  8
0
  6
Continuous
 62
     7
100
AcDbLine
 10
923.7680220367054
 20
-553.3335129280778
 30
0.0
 11
923.7680220367035
 21
-552.6335129280777
 31
0.0
  0
LINE
  5
12E
330
1F
100
AcDbEntity
  8
0
  6
Continuous
 62
     7
100
AcDbLine
 10
901.4680220363896
 20
-553.3335129283944
 30
0.0
 11
901.4680220367043
 21
-553.4335129280802
 31
0.0
  0
LINE
  5
12F
330
1F
100
AcDbEntity
  8
0
  6
Continuous
 62
     7
100
AcDbLine
 10
920.7680220367054
 20
-553.333512928078
 30
0.0
 11
920.7680220367054
 21
-553.433512928078
 31
0.0
  0
LINE
  5
130
330
1F
100
AcDbEntity
  8
0
  6
Continuous
 62
     7
100
AcDbLine
 10
920.7680220367035
 20
-552.633512928078
 30
0.0
 11
920.7680220367054
 21
-553.333512928078
 31
0.0
  0
LINE
  5
131
330
1F
100
AcDbEntity
  8
0
  6
Continuous
 62
     7
100
AcDbLine
 10
920.7680220367054
 20
-553.433512928078
 30
0.0
 11
920.7680220367054
 21
-554.133512928078
 31
0.0
  0
LINE
  5
132
330
1F
100
AcDbEntity
  8
0
  6
Continuous
 62
     7
100
AcDbLine
 10
920.7680220367035
 20
-550.933512928078
 30
0.0
 11
920.7680220367035
 21
-551.633512928078
 31
0.0
  0
LINE
  5
133
330
1F
100
AcDbEntity
  8
0
  6
Continuous
 62
     7
100
AcDbLine
 10
920.7680220367035
 20
-550.1335129280781
 30
0.0
 11
920.7680220367035
 21
-550.833512928078
 31
0.0
  0
LINE
  5
134
330
1F
100
AcDbEntity
  8
0
  6
Continuous
 62
     7
100
AcDbLine
 10
920.7680220367035
 20
-549.1335129280781
 30
0.0
 11
900.7680220370182
 21
-549.1335129283943
 31
0.0
  0
LINE
  5
135
330
1F
100
AcDbEntity
  8
0
  6
Continuous
 62
     7
100
AcDbLine
 10
901.4680220363896
 20
-548.3335129283944
 30
0.0
 11
901.4680220367043
 21
-548.4335129280802
 31
0.0
  0
LINE
  5
136
330
1F
100
AcDbEntity
  8
0
  6
Continuous
 62
     7
100
AcDbLine
 10
920.7680220367035
 20
-548.3335129280781
 30
0.0
 11
920.7680220367035
 21
-548.433512928078
 31
0.0
  0
LINE
  5
137
330
1F
100
AcDbEntity
  8
0
  6
Continuous
 62
     7
100
AcDbLine
 10
920.7680220367035
 20
-548.433512928078
 30
0.0
 11
920.7680220367035
 21
-549.1335129280781
 31
0.0
  0
LINE
  5
138
330
1F
100
AcDbEntity
  8
0
  6
Continuous
 62
     7
100
AcDbLine
 10
920.7680220367035
 20
-547.6325129280781
 30
0.0
 11
920.7680220367035
 21
-548.3335129280781
 31
0.0
  0
LINE
  5
139
330
1F
100
AcDbEntity
  8
0
  6
Continuous
 62
     7
100
AcDbLine
 10
900.7670221204069
 20
-547.6325130111542
 30
0.0
 11
906.7670220367033
 21
-547.6335129280795
 31
0.0
  0
LINE
  5
13A
330
1F
100
AcDbEntity
  8
0
  6
Continuous
 62
     7
100
AcDbLine
 10
920.7680220367035
 20
-547.6325129280781
 30
0.0
 11
906.7670220367033
 21
-547.6335129280795
 31
0.0
  0
LINE
  5
13B
330
1F
100
AcDbEntity
  8
0
  6
Continuous
 62
     7
100
AcDbLine
 10
901.4680220363896
 20
-550.8335129283943
 30
0.0
 11
901.4680220367043
 21
-550.9335129280802
 31
0.0
  0
LINE
  5
13C
330
1F
100
AcDbEntity
  8
0
  6
Continuous
 62
     7
100
AcDbLine
 10
920.7680220367035
 20
-550.833512928078
 30
0.0
 11
920.7680220367035
 21
-550.933512928078
 31
0.0
  0
LINE
  5
13D
330
1F
100
AcDbEntity
  8
0
  6
Continuous
 62
     7
100
AcDbLine
 10
920.7680220367035
 20
-550.1335129280781
 30
0.0
 11
900.7680220367035
 21
-550.1335129280802
 31
0.0
  0
LINE
  5
13E
330
1F
100
AcDbEntity
  8
0
  6
Continuous
 62
     7
100
AcDbLine
 10
754.2648204929459
 20
-556.9185288738856
 30
0.0
 11
762.2922066886462
 21
-606.83305335624
 31
0.0
  0
LINE
  5
13F
330
1F
100
AcDbEntity
  8
0
  6
Continuous
 62
     7
100
AcDbLine
 10
760.1660218791961
 20
-547.633512928075
 30
0.0
 11
841.6670215457801
 21
-547.6325130114686
 31
0.0
  0
LINE
  5
140
330
1F
100
AcDbEntity
  8
0
  6
Continuous
 62
     7
100
AcDbLine
 10
841.6670215457801
 20
-547.6325130114686
 30
0.0
 11
847.6675218788808
 21
-547.6330129277651
 31
0.0
  0
LINE
  5
141
330
1F
100
AcDbEntity
  8
0
  6
Continuous
 62
     7
100
AcDbLine
 10
847.6680218791965
 20
-546.6345129280771
 30
0.0
 11
754.1670218791963
 21
-546.6335129280757
 31
0.0
  0
LINE
  5
142
330
1F
100
AcDbEntity
  8
0
  6
Continuous
 62
     7
100
AcDbLine
 10
821.2635988267806
 20
-545.1334388630789
 30
0.0
 11
780.5704449316239
 21
-545.1334388630789
 31
0.0
  0
LINE
  5
143
330
1F
100
AcDbEntity
  8
0
  6
Continuous
 62
     7
100
AcDbLine
 10
820.0425122284117
 20
-532.8835129280799
 30
0.0
 11
781.7915315299737
 21
-532.8835129280799
 31
0.0
  0
LINE
  5
144
330
1F
100
AcDbEntity
  8
0
  6
Continuous
 62
     7
100
AcDbLine
 10
829.3131527375075
 20
-544.6599537751483
 30
0.0
 11
845.604861486809
 21
-532.8735129280808
 31
0.0
  0
LINE
  5
145
330
1F
100
AcDbEntity
  8
0
  6
Continuous
 62
     7
100
AcDbLine
 10
845.604861486809
 20
-532.8735129280808
 30
0.0
 11
847.6670218791963
 21
-532.8735129280791
 31
0.0
  0
LINE
  5
146
330
1F
100
AcDbEntity
  8
0
  6
Continuous
 62
     7
100
AcDbLine
 10
779.6076128020762
 20
-542.7843731180903
 30
0.0
 11
778.6493133316156
 21
-542.2310986608501
 31
0.0
  0
LINE
  5
147
330
1F
100
AcDbEntity
  8
0
  6
Continuous
 62
     7
100
AcDbLine
 10
781.5697095586905
 20
-540.2221484858838
 30
0.0
 11
780.249313331616
 21
-539.4598173687457
 31
0.0
  0
LINE
  5
148
330
1F
100
AcDbEntity
  8
0
  6
Continuous
 62
     7
100
AcDbLine
 10
822.2264309563155
 20
-542.7843731180843
 30
0.0
 11
823.1847304267761
 21
-542.2310986608561
 31
0.0
  0
LINE
  5
149
330
1F
100
AcDbEntity
  8
0
  6
Continuous
 62
     7
100
AcDbLine
 10
820.2643341997021
 20
-540.222148485878
 30
0.0
 11
821.1781508136204
 21
-539.6945562178424
 31
0.0
  0
LINE
  5
14A
330
1F
100
AcDbEntity
  8
0
  6
Continuous
 62
     7
100
AcDbLine
 10
821.1781508136204
 20
-539.6945562178424
 30
0.0
 11
821.5847304267767
 21
-539.45981736874
 31
0.0
  0
LINE
  5
14B
330
1F
100
AcDbEntity
  8
0
  6
Continuous
 62
     7
100
AcDbLine
 10
820.1004879594569
 20
-545.1325129280749
 30
0.0
 11
781.733555798943
 21
-545.1325129280749
 31
0.0
  0
LINE
  5
14C
330
1F
100
AcDbEntity
  8
0
  6
Continuous
 62
     7
100
AcDbLine
 10
839.5418370697474
 20
-606.8330533562402
 30
0.0
 11
847.5692232654459
 21
-556.9185288738856
 31
0.0
  0
LINE
  5
14D
330
1F
100
AcDbEntity
  8
0
  6
Continuous
 62
     7
100
AcDbLine
 10
837.7187534272556
 20
-601.8835129280752
 30
0.0
 11
843.3854200939217
 21
-570.8835129280751
 31
0.0
  0
LINE
  5
14E
330
1F
100
AcDbEntity
  8
0
  6
Continuous
 62
     7
100
AcDbLine
 10
847.6670218791963
 20
-551.6335129280773
 30
0.0
 11
846.9670218791956
 21
-550.9335129280772
 31
0.0
  0
LINE
  5
14F
330
1F
100
AcDbEntity
  8
0
  6
Continuous
 62
     7
100
AcDbLine
 10
847.6670218791963
 20
-549.1335129280757
 30
0.0
 11
846.9670218795103
 21
-548.4335129277616
 31
0.0
  0
LINE
  5
150
330
1F
100
AcDbEntity
  8
0
  6
Continuous
 62
     7
100
AcDbLine
 10
847.6670218791963
 20
-550.1335129280757
 30
0.0
 11
846.9670218795103
 21
-550.8335129283931
 31
0.0
  0
LINE
  5
151
330
1F
100
AcDbEntity
  8
0
  6
Continuous
 62
     7
100
AcDbLine
 10
846.9670218795103
 20
-548.3335129283931
 30
0.0
 11
846.9670218795103
 21
-548.4335129277616
 31
0.0
  0
LINE
  5
152
330
1F
100
AcDbEntity
  8
0
  6
Continuous
 62
     7
100
AcDbLine
 10
847.6670218791963
 20
-550.1335129280757
 30
0.0
 11
847.6670218791963
 21
-549.1335129280757
 31
0.0
  0
LINE
  5
153
330
1F
100
AcDbEntity
  8
0
  6
Continuous
 62
     7
100
AcDbLine
 10
846.9670218791956
 20
-550.9335129280772
 30
0.0
 11
846.9670218795103
 21
-550.8335129283931
 31
0.0
  0
LINE
  5
154
330
1F
100
AcDbEntity
  8
0
  6
Continuous
 62
     7
100
AcDbLine
 10
846.9670218791956
 20
-553.3335129280772
 30
0.0
 11
847.6670218788817
 21
-552.6335129277614
 31
0.0
  0
LINE
  5
155
330
1F
100
AcDbEntity
  8
0
  6
Continuous
 62
     7
100
AcDbLine
 10
837.0825864921429
 20
-608.8835129280759
 30
0.0
 11
816.9170218791963
 21
-608.8835129280756
 31
0.0
  0
LINE
  5
156
330
1F
100
AcDbEntity
  8
0
  6
Continuous
 62
     7
100
AcDbLine
 10
847.6670218791963
 20
-554.1335129280773
 30
0.0
 11
846.9670218791956
 21
-553.4335129280772
 31
0.0
  0
LINE
  5
157
330
1F
100
AcDbEntity
  8
0
  6
Continuous
 62
     7
100
AcDbLine
 10
846.9670218791956
 20
-553.4335129280772
 30
0.0
 11
846.9670218791956
 21
-553.3335129280772
 31
0.0
  0
LINE
  5
158
330
1F
100
AcDbEntity
  8
0
  6
Continuous
 62
     7
100
AcDbLine
 10
784.9170218791963
 20
-608.8835129280756
 30
0.0
 11
816.9170218791963
 21
-608.8835129280756
 31
0.0
  0
LINE
  5
159
330
1F
100
AcDbEntity
  8
0
  6
Continuous
 62
     7
100
AcDbLine
 10
843.3854200939217
 20
-570.8835129280751
 30
0.0
 11
758.448623664471
 21
-570.8835129280751
 31
0.0
  0
LINE
  5
15A
330
1F
100
AcDbEntity
  8
0
  6
Continuous
 62
     7
100
AcDbLine
 10
834.6494975963045
 20
-529.1212995308364
 30
0.0
 11
826.4517321723246
 21
-520.5824016782079
 31
0.0
  0
LINE
  5
15B
330
1F
100
AcDbEntity
  8
0
  6
Continuous
 62
     7
100
AcDbLine
 10
776.661759589308
 20
-523.9625905190969
 30
0.0
 11
775.6022974356359
 21
-526.8734388630791
 31
0.0
  0
LINE
  5
15C
330
1F
100
AcDbEntity
  8
0
  6
Continuous
 62
     7
100
AcDbLine
 10
756.2291822715846
 20
-532.8735129280808
 30
0.0
 11
754.1670218791963
 21
-532.8735129280791
 31
0.0
  0
LINE
  5
15D
330
1F
100
AcDbEntity
  8
0
  6
Continuous
 62
     7
100
AcDbLine
 10
775.4166456587039
 20
-527.3835129280799
 30
0.0
 11
826.4173980996906
 21
-527.3835129280799
 31
0.0
  0
LINE
  5
15E
330
1F
100
AcDbEntity
  8
0
  6
Continuous
 62
     7
100
AcDbLine
 10
754.1184035867321
 20
-532.8735129280791
 30
0.0
 11
754.1670218791963
 21
-532.8735129280791
 31
0.0
  0
LINE
  5
15F
330
1F
100
AcDbEntity
  8
0
  6
Continuous
 62
     7
100
AcDbLine
 10
754.1184035867321
 20
-531.3464436382296
 30
0.0
 11
754.1184035867321
 21
-532.8735129280791
 31
0.0
  0
LINE
  5
160
330
1F
100
AcDbEntity
  8
0
  6
Continuous
 62
     7
100
AcDbLine
 10
780.4118642860716
 20
-522.8820061983222
 30
0.0
 11
780.1548442287616
 21
-522.7272784046245
 31
0.0
  0
LINE
  5
161
330
1F
100
AcDbEntity
  8
0
  6
Continuous
 62
     7
100
AcDbLine
 10
821.4221794723202
 20
-522.8820061983155
 30
0.0
 11
821.6791995296302
 21
-522.7272784046193
 31
0.0
  0
LINE
  5
162
330
1F
100
AcDbEntity
  8
0
  6
Continuous
 62
     7
100
AcDbLine
 10
825.1722841690838
 20
-523.9625905190903
 30
0.0
 11
826.4173980996906
 21
-527.3835129280799
 31
0.0
  0
LINE
  5
163
330
1F
100
AcDbEntity
  8
0
  6
Continuous
 62
     7
100
AcDbLine
 10
785.7170218791929
 20
-517.5834388630734
 30
0.0
 11
785.7170218791929
 21
-519.8834388630785
 31
0.0
  0
LINE
  5
164
330
1F
100
AcDbEntity
  8
0
  6
Continuous
 62
     7
100
AcDbLine
 10
783.2170218791902
 20
-517.5834388630809
 30
0.0
 11
783.2170218791902
 21
-519.0654209809586
 31
0.0
  0
LINE
  5
165
330
1F
100
AcDbEntity
  8
0
  6
Continuous
 62
     7
100
AcDbLine
 10
816.1170218791989
 20
-517.58343886308
 30
0.0
 11
816.1170218791989
 21
-519.8834388630719
 31
0.0
  0
LINE
  5
166
330
1F
100
AcDbEntity
  8
0
  6
Continuous
 62
     7
100
AcDbLine
 10
818.6170218792025
 20
-517.5834388630745
 30
0.0
 11
818.6170218792025
 21
-519.0654209809521
 31
0.0
  0
LINE
  5
167
330
1F
100
AcDbEntity
  8
0
  6
Continuous
 62
     7
100
AcDbLine
 10
839.8686402474272
 20
-516.0834388630833
 30
0.0
 11
820.1170218792025
 21
-516.0834388630748
 31
0.0
  0
LINE
  5
168
330
1F
100
AcDbEntity
  8
0
  6
Continuous
 62
     7
100
AcDbLine
 10
761.2837207248643
 20
-516.0834388630833
 30
0.0
 11
781.7170218791902
 21
-516.083438863081
 31
0.0
  0
LINE
  5
169
330
1F
100
AcDbEntity
  8
0
  6
Continuous
 62
     7
100
AcDbLine
 10
746.110539041971
 20
-514.27997520535
 30
0.0
 11
746.069865377663
 21
-514.1886206595858
 31
0.0
  0
LINE
  5
16A
330
1F
100
AcDbEntity
  8
0
  6
Continuous
 62
     7
100
AcDbLine
 10
746.9875603884751
 20
-513.8546069915157
 30
0.0
 11
747.0151241240559
 21
-513.9507331611096
 31
0.0
  0
LINE
  5
16B
330
1F
100
AcDbEntity
  8
0
  6
Continuous
 62
     7
100
AcDbLine
 10
748.9170218791945
 20
-513.6834388630838
 30
0.0
 11
748.9170218791945
 21
-513.5834388630838
 31
0.0
  0
LINE
  5
16C
330
1F
100
AcDbEntity
  8
0
  6
Continuous
 62
     7
100
AcDbLine
 10
747.9428101724728
 20
-513.6515623818929
 30
0.0
 11
747.9567274825689
 21
-513.750589188767
 31
0.0
  0
LINE
  5
16D
330
1F
100
AcDbEntity
  8
0
  6
Continuous
 62
     7
100
AcDbLine
 10
750.4170218791991
 20
-516.0834388630846
 30
0.0
 11
748.9170218791909
 21
-516.0834388630848
 31
0.0
  0
LINE
  5
16E
330
1F
100
AcDbEntity
  8
0
  6
Continuous
 62
     7
100
AcDbLine
 10
745.2075870295624
 20
-514.647102189989
 30
0.0
 11
745.2605789559851
 21
-514.7319069996048
 31
0.0
  0
LINE
  5
16F
330
1F
100
AcDbEntity
  8
0
  6
Continuous
 62
     7
100
AcDbLine
 10
751.4170218792
 20
-524.0834388630846
 30
0.0
 11
751.4170218791991
 21
-517.0834388630846
 31
0.0
  0
LINE
  5
170
330
1F
100
AcDbEntity
  8
0
  6
Continuous
 62
     7
100
AcDbLine
 10
748.9170218791945
 20
-513.5834388630838
 30
0.0
 11
781.717021879192
 21
-513.5834388630734
 31
0.0
  0
LINE
  5
171
330
1F
100
AcDbEntity
  8
0
  6
Continuous
 62
     7
100
AcDbLine
 10
750.4170218792
 20
-525.0834388630848
 30
0.0
 11
748.9170218791918
 21
-525.0834388630848
 31
0.0
  0
LINE
  5
172
330
1F
100
AcDbEntity
  8
0
  6
Continuous
 62
     7
100
AcDbLine
 10
744.8025251131479
 20
-526.2465578237088
 30
0.0
 11
744.8613036383771
 21
-526.1656561242713
 31
0.0
  0
LINE
  5
173
330
1F
100
AcDbEntity
  8
0
  6
Continuous
 62
     7
100
AcDbLine
 10
744.4175086113877
 20
-515.2211277612514
 30
0.0
 11
744.4817873723572
 21
-515.2977322055633
 31
0.0
  0
LINE
  5
174
330
1F
100
AcDbEntity
  8
0
  6
Continuous
 62
     7
100
AcDbLine
 10
744.0544132859826
 20
-525.6188174654548
 30
0.0
 11
744.1238791230275
 21
-525.546883485421
 31
0.0
  0
LINE
  5
175
330
1F
100
AcDbEntity
  8
0
  6
Continuous
 62
     7
100
AcDbLine
 10
743.7150081008525
 20
-515.8995246185723
 30
0.0
 11
743.7893225833999
 21
-515.9664376792082
 31
0.0
  0
LINE
  5
176
330
1F
100
AcDbEntity
  8
0
  6
Continuous
 62
     7
100
AcDbLine
 10
743.4009466039482
 20
-524.893069190364
 30
0.0
 11
743.4797476793095
 21
-524.8315030428315
 31
0.0
  0
LINE
  5
177
330
1F
100
AcDbEntity
  8
0
  6
Continuous
 62
     7
100
AcDbLine
 10
743.1966626285642
 20
-516.7250078291363
 30
0.0
 11
743.1137588713094
 21
-516.6690885387891
 31
0.0
  0
LINE
  5
178
330
1F
100
AcDbEntity
  8
0
  6
Continuous
 62
     7
100
AcDbLine
 10
742.9170218792018
 20
-524.0475404782169
 30
0.0
 11
742.9414465930835
 21
-524.0334388630845
 31
0.0
  0
LINE
  5
179
330
1F
100
AcDbEntity
  8
0
  6
Continuous
 62
     7
100
AcDbLine
 10
742.9170218792018
 20
-523.9907838705717
 30
0.0
 11
742.9170218792018
 21
-524.0475404782169
 31
0.0
  0
LINE
  5
17A
330
1F
100
AcDbEntity
  8
0
  6
Continuous
 62
     7
100
AcDbLine
 10
742.8548440527042
 20
-524.0834388630843
 30
0.0
 11
742.9170218792018
 21
-524.0475404782169
 31
0.0
  0
LINE
  5
17B
330
1F
100
AcDbEntity
  8
0
  6
Continuous
 62
     7
100
AcDbLine
 10
742.6254635550998
 20
-517.5148408355609
 30
0.0
 11
742.7153429597305
 21
-517.5586779502397
 31
0.0
  0
LINE
  5
17C
330
1F
100
AcDbEntity
  8
0
  6
Continuous
 62
     7
100
AcDbLine
 10
742.5194532826839
 20
-523.1682243576543
 30
0.0
 11
742.4267348972274
 21
-523.2056850169959
 31
0.0
  0
LINE
  5
17D
330
1F
100
AcDbEntity
  8
0
  6
Continuous
 62
     7
100
AcDbLine
 10
742.259626265129
 20
-518.4203199024598
 30
0.0
 11
742.3547319167586
 21
-518.4512216018973
 31
0.0
  0
LINE
  5
17E
330
1F
100
AcDbEntity
  8
0
  6
Continuous
 62
     7
100
AcDbLine
 10
742.1249517952632
 20
-522.2768921322821
 30
0.0
 11
742.2219813678906
 21
-522.2526999427222
 31
0.0
  0
LINE
  5
17F
330
1F
100
AcDbEntity
  8
0
  6
Continuous
 62
     7
100
AcDbLine
 10
742.0548208011545
 20
-521.3046852596314
 30
0.0
 11
741.9553686116172
 21
-521.3151381059581
 31
0.0
  0
LINE
  5
180
330
1F
100
AcDbEntity
  8
0
  6
Continuous
 62
     7
100
AcDbLine
 10
742.1218483834103
 20
-519.3852664371826
 30
0.0
 11
742.0233676081092
 21
-519.3679016194161
 31
0.0
  0
LINE
  5
181
330
1F
100
AcDbEntity
  8
0
  6
Continuous
 62
     7
100
AcDbLine
 10
741.921286090061
 20
-520.339142386167
 30
0.0
 11
742.0212251727629
 21
-520.3426323358372
 31
0.0
  0
LINE
  5
182
330
1F
100
AcDbEntity
  8
0
  6
Continuous
 62
     7
100
AcDbLine
 10
852.9170218791982
 20
-513.583438863077
 30
0.0
 11
820.1170218791998
 21
-513.58343886308
 31
0.0
  0
LINE
  5
183
330
1F
100
AcDbEntity
  8
0
  6
Continuous
 62
     7
100
AcDbLine
 10
852.9170218791982
 20
-513.6834388630772
 30
0.0
 11
852.9170218791982
 21
-513.583438863077
 31
0.0
  0
LINE
  5
184
330
1F
100
AcDbEntity
  8
0
  6
Continuous
 62
     7
100
AcDbLine
 10
850.4170218791918
 20
-524.0834388630782
 30
0.0
 11
850.4170218791927
 21
-517.0834388630782
 31
0.0
  0
LINE
  5
185
330
1F
100
AcDbEntity
  8
0
  6
Continuous
 62
     7
100
AcDbLine
 10
851.4170218791918
 20
-525.0834388630784
 30
0.0
 11
852.9170218792
 21
-525.0834388630784
 31
0.0
  0
LINE
  5
186
330
1F
100
AcDbEntity
  8
0
  6
Continuous
 62
     7
100
AcDbLine
 10
767.6696668081235
 20
-602.8835129280751
 30
0.0
 11
834.1643769502674
 21
-602.8835129280751
 31
0.0
  0
LINE
  5
187
330
1F
100
AcDbEntity
  8
0
  6
Continuous
 62
     7
100
AcDbLine
 10
772.5208910208834
 20
-544.659953775143
 30
0.0
 11
772.068186287733
 21
-544.332438863074
 31
0.0
  0
LINE
  5
188
330
1F
100
AcDbEntity
  8
0
  6
Continuous
 62
     7
100
AcDbLine
 10
748.9170218791945
 20
-527.5834388630773
 30
0.0
 11
754.1184035867321
 21
-531.3464436382296
 31
0.0
  0
LINE
  5
189
330
1F
100
AcDbEntity
  8
0
  6
Continuous
 62
     7
100
AcDbLine
 10
754.1670218791963
 20
-545.1335129280791
 30
0.0
 11
760.1660218791961
 21
-545.1335129280799
 31
0.0
  0
LINE
  5
18A
330
1F
100
AcDbEntity
  8
0
  6
Continuous
 62
     7
100
AcDbLine
 10
841.6680218791965
 20
-545.1335129280799
 30
0.0
 11
843.6670218791963
 21
-545.1345130107876
 31
0.0
  0
LINE
  5
18B
330
1F
100
AcDbEntity
  8
0
  6
Continuous
 62
     7
100
AcDbLine
 10
841.6680218791965
 20
-545.1335129280799
 30
0.0
 11
828.5721044899168
 21
-545.1325129280748
 31
0.0
  0
LINE
  5
18C
330
1F
100
AcDbEntity
  8
0
  6
Continuous
 62
     7
100
AcDbLine
 10
755.123286623017
 20
-532.07343886308
 30
0.0
 11
754.1184035867321
 21
-531.3464436382296
 31
0.0
  0
LINE
  5
18D
330
1F
100
AcDbEntity
  8
0
  6
Continuous
 62
     7
100
AcDbLine
 10
781.7915315299737
 20
-532.8835129280799
 30
0.0
 11
820.0425122284117
 21
-532.8835129280799
 31
0.0
  0
LINE
  5
18E
330
1F
100
AcDbEntity
  8
0
  6
Continuous
 62
     7
100
AcDbLine
 10
748.9170218791945
 20
-527.5834388630773
 30
0.0
 11
748.9170218791945
 21
-527.4834388630773
 31
0.0
  0
LINE
  5
18F
330
1F
100
AcDbEntity
  8
0
  6
Continuous
 62
     7
100
AcDbLine
 10
748.4357022103608
 20
-527.46663080987
 30
0.0
 11
748.4287265629858
 21
-527.566387214896
 31
0.0
  0
LINE
  5
190
330
1F
100
AcDbEntity
  8
0
  6
Continuous
 62
     7
100
AcDbLine
 10
747.461640043471
 20
-527.4304720682205
 30
0.0
 11
747.4712496749265
 21
-527.3852623067299
 31
0.0
  0
LINE
  5
191
330
1F
100
AcDbEntity
  8
0
  6
Continuous
 62
     7
100
AcDbLine
 10
746.5570828902486
 20
-527.0673179465068
 30
0.0
 11
746.522880875916
 21
-527.1612872085853
 31
0.0
  0
LINE
  5
192
330
1F
100
AcDbEntity
  8
0
  6
Continuous
 62
     7
100
AcDbLine
 10
775.6022974356359
 20
-526.8734388630791
 30
0.0
 11
775.4166456587039
 21
-527.3835129280799
 31
0.0
  0
LINE
  5
193
330
1F
100
AcDbEntity
  8
0
  6
Continuous
 62
     7
100
AcDbLine
 10
767.1845461620891
 20
-529.1212995308425
 30
0.0
 11
775.3823115860681
 21
-520.5824016782144
 31
0.0
  0
LINE
  5
194
330
1F
100
AcDbEntity
  8
0
  6
Continuous
 62
     7
100
AcDbLine
 10
745.630720939694
 20
-526.7640720130966
 30
0.0
 11
745.6776680959732
 21
-526.6757772538107
 31
0.0
  0
LINE
  5
195
330
1F
100
AcDbEntity
  8
0
  6
Continuous
 62
     7
100
AcDbLine
 10
758.448623664471
 20
-570.8835129280751
 30
0.0
 11
764.115290331138
 21
-601.8835129280752
 31
0.0
  0
LINE
  5
196
330
1F
100
AcDbEntity
  8
0
  6
Continuous
 62
     7
100
AcDbLine
 10
754.1670218791963
 20
-552.6335129280791
 30
0.0
 11
847.6670218788817
 21
-552.6335129277614
 31
0.0
  0
LINE
  5
197
330
1F
100
AcDbEntity
  8
0
  6
Continuous
 62
     7
100
AcDbLine
 10
847.6670218791963
 20
-551.6335129280773
 30
0.0
 11
754.1670218791963
 21
-551.6335129280775
 31
0.0
  0
LINE
  5
198
330
1F
100
AcDbEntity
  8
0
  6
Continuous
 62
     7
100
AcDbLine
 10
754.1670218791963
 20
-554.1335129280775
 30
0.0
 11
754.8670218791962
 21
-553.4335129280755
 31
0.0
  0
LINE
  5
199
330
1F
100
AcDbEntity
  8
0
  6
Continuous
 62
     7
100
AcDbLine
 10
754.1670218791963
 20
-546.6335129280757
 30
0.0
 11
754.8670218791962
 21
-545.933512928079
 31
0.0
  0
LINE
  5
19A
330
1F
100
AcDbEntity
  8
0
  6
Continuous
 62
     7
100
AcDbLine
 10
754.1670218791963
 20
-552.6335129280791
 30
0.0
 11
754.8670218791962
 21
-553.3335129280757
 31
0.0
  0
LINE
  5
19B
330
1F
100
AcDbEntity
  8
0
  6
Continuous
 62
     7
100
AcDbLine
 10
754.1670218791963
 20
-547.6335129280757
 30
0.0
 11
754.8670218788824
 21
-548.3335129283931
 31
0.0
  0
LINE
  5
19C
330
1F
100
AcDbEntity
  8
0
  6
Continuous
 62
     7
100
AcDbLine
 10
754.1670218791963
 20
-545.1335129280791
 30
0.0
 11
754.8670218791962
 21
-545.833512928079
 31
0.0
  0
LINE
  5
19D
330
1F
100
AcDbEntity
  8
0
  6
Continuous
 62
     7
100
AcDbLine
 10
754.1670218791963
 20
-551.6335129280775
 30
0.0
 11
754.8670218791962
 21
-550.933512928079
 31
0.0
  0
LINE
  5
19E
330
1F
100
AcDbEntity
  8
0
  6
Continuous
 62
     7
100
AcDbLine
 10
754.1670218795101
 20
-549.1335129283898
 30
0.0
 11
754.8670218788824
 21
-548.4335129277616
 31
0.0
  0
LINE
  5
19F
330
1F
100
AcDbEntity
  8
0
  6
Continuous
 62
     7
100
AcDbLine
 10
754.1670218791963
 20
-547.6335129280757
 30
0.0
 11
754.1670218795101
 21
-549.1335129283898
 31
0.0
  0
LINE
  5
1A0
330
1F
100
AcDbEntity
  8
0
  6
Continuous
 62
     7
100
AcDbLine
 10
754.1670218791963
 20
-545.1335129280791
 30
0.0
 11
754.1670218791963
 21
-532.8735129280791
 31
0.0
  0
LINE
  5
1A1
330
1F
100
AcDbEntity
  8
0
  6
Continuous
 62
     7
100
AcDbLine
 10
754.1670218791963
 20
-546.6335129280757
 30
0.0
 11
754.1670218791963
 21
-547.6335129280757
 31
0.0
  0
LINE
  5
1A2
330
1F
100
AcDbEntity
  8
0
  6
Continuous
 62
     7
100
AcDbLine
 10
754.1670218791963
 20
-545.1335129280791
 30
0.0
 11
754.1670218791963
 21
-546.6335129280757
 31
0.0
  0
LINE
  5
1A3
330
1F
100
AcDbEntity
  8
0
  6
Continuous
 62
     7
100
AcDbLine
 10
754.1670218791963
 20
-550.1335129280791
 30
0.0
 11
754.1670218795101
 21
-549.1335129283898
 31
0.0
  0
LINE
  5
1A4
330
1F
100
AcDbEntity
  8
0
  6
Continuous
 62
     7
100
AcDbLine
 10
754.1670218791963
 20
-550.1335129280791
 30
0.0
 11
754.1670218791963
 21
-551.6335129280775
 31
0.0
  0
LINE
  5
1A5
330
1F
100
AcDbEntity
  8
0
  6
Continuous
 62
     7
100
AcDbLine
 10
754.1670218791963
 20
-550.1335129280791
 30
0.0
 11
754.8670218788824
 21
-550.8335129283931
 31
0.0
  0
LINE
  5
1A6
330
1F
100
AcDbEntity
  8
0
  6
Continuous
 62
     7
100
AcDbLine
 10
754.1670218791963
 20
-552.6335129280791
 30
0.0
 11
754.1670218791963
 21
-551.6335129280775
 31
0.0
  0
LINE
  5
1A7
330
1F
100
AcDbEntity
  8
0
  6
Continuous
 62
     7
100
AcDbLine
 10
754.1670218791963
 20
-552.6335129280791
 30
0.0
 11
754.1670218791963
 21
-554.1335129280775
 31
0.0
  0
LINE
  5
1A8
330
1F
100
AcDbEntity
  8
0
  6
Continuous
 62
     7
100
AcDbLine
 10
754.1670218791963
 20
-555.8396318462952
 30
0.0
 11
754.1670218791963
 21
-554.1335129280775
 31
0.0
  0
LINE
  5
1A9
330
1F
100
AcDbEntity
  8
0
  6
Continuous
 62
     7
100
AcDbLine
 10
754.8670218791962
 20
-545.933512928079
 30
0.0
 11
754.8670218791962
 21
-545.833512928079
 31
0.0
  0
LINE
  5
1AA
330
1F
100
AcDbEntity
  8
0
  6
Continuous
 62
     7
100
AcDbLine
 10
754.8670218788824
 20
-550.8335129283931
 30
0.0
 11
754.8670218791962
 21
-550.933512928079
 31
0.0
  0
LINE
  5
1AB
330
1F
100
AcDbEntity
  8
0
  6
Continuous
 62
     7
100
AcDbLine
 10
754.8670218788824
 20
-548.3335129283931
 30
0.0
 11
754.8670218788824
 21
-548.4335129277616
 31
0.0
  0
LINE
  5
1AC
330
1F
100
AcDbEntity
  8
0
  6
Continuous
 62
     7
100
AcDbLine
 10
754.8670218791962
 20
-553.4335129280755
 30
0.0
 11
754.8670218791962
 21
-553.3335129280757
 31
0.0
  0
LINE
  5
1AD
330
1F
100
AcDbEntity
  8
0
  6
Continuous
 62
     7
100
AcDbLine
 10
784.9170218791963
 20
-608.8835129280756
 30
0.0
 11
764.7514572662507
 21
-608.8835129280793
 31
0.0
  0
LINE
  5
1AE
330
1F
100
AcDbEntity
  8
0
  6
Continuous
 62
     7
100
AcDbLine
 10
772.068186287733
 20
-544.332438863074
 30
0.0
 11
756.2291822715846
 21
-532.8735129280808
 31
0.0
  0
LINE
  5
1AF
330
1F
100
AcDbEntity
  8
0
  6
Continuous
 62
     7
100
AcDbLine
 10
773.2635988267679
 20
-545.1334388630789
 30
0.0
 11
760.1660218791961
 21
-545.1335129280799
 31
0.0
  0
LINE
  5
1B0
330
1F
100
AcDbEntity
  8
0
  6
Continuous
 62
     7
100
AcDbLine
 10
775.4249055167724
 20
-545.9335129280797
 30
0.0
 11
754.8670218791962
 21
-545.933512928079
 31
0.0
  0
LINE
  5
1B1
330
1F
100
AcDbEntity
  8
0
  6
Continuous
 62
     7
100
AcDbLine
 10
837.7187534272556
 20
-601.8835129280752
 30
0.0
 11
764.115290331138
 21
-601.8835129280752
 31
0.0
  0
LINE
  5
1B2
330
1F
100
AcDbEntity
  8
0
  6
Continuous
 62
     7
100
AcDbLine
 10
847.6670218791963
 20
-550.1335129280757
 30
0.0
 11
754.1670218791963
 21
-550.1335129280791
 31
0.0
  0
LINE
  5
1B3
330
1F
100
AcDbEntity
  8
0
  6
Continuous
 62
     7
100
AcDbLine
 10
847.6670218791963
 20
-549.1335129280757
 30
0.0
 11
754.1670218795101
 21
-549.1335129283898
 31
0.0
  0
LINE
  5
1B4
330
1F
100
AcDbEntity
  8
0
  6
Continuous
 62
     7
100
AcDbLine
 10
760.1660218791961
 20
-547.633512928075
 30
0.0
 11
754.1670218791963
 21
-547.6335129280757
 31
0.0
  0
LINE
  5
1B5
330
1F
100
AcDbEntity
  8
0
  6
Continuous
 62
     7
100
AcDbLine
 10
754.1670218791963
 20
-554.1335129280775
 30
0.0
 11
847.6670218791963
 21
-554.1335129280773
 31
0.0
  0
LINE
  5
1B6
330
1F
100
AcDbEntity
  8
0
  6
Continuous
 62
     7
100
AcDbLine
 10
761.6374087436083
 20
-569.8835129280751
 30
0.0
 11
840.1966350147844
 21
-569.8835129280751
 31
0.0
  0
LINE
  5
1B7
330
1F
100
AcDbEntity
  8
0
  6
Continuous
 62
     7
100
AcDbLine
 10
856.2033228186987
 20
-526.76407201309
 30
0.0
 11
856.1563756624195
 21
-526.6757772538041
 31
0.0
  0
LINE
  5
1B8
330
1F
100
AcDbEntity
  8
0
  6
Continuous
 62
     7
100
AcDbLine
 10
855.2769608681441
 20
-527.0673179465002
 30
0.0
 11
855.3111628824767
 21
-527.1612872085788
 31
0.0
  0
LINE
  5
1B9
330
1F
100
AcDbEntity
  8
0
  6
Continuous
 62
     7
100
AcDbLine
 10
853.398341548031
 20
-527.4666308098766
 30
0.0
 11
853.4053171954059
 21
-527.5663872149026
 31
0.0
  0
LINE
  5
1BA
330
1F
100
AcDbEntity
  8
0
  6
Continuous
 62
     7
100
AcDbLine
 10
847.7382211128146
 20
-531.3301071733879
 30
0.0
 11
852.9170218791963
 21
-527.5834388630838
 31
0.0
  0
LINE
  5
1BB
330
1F
100
AcDbEntity
  8
0
  6
Continuous
 62
     7
100
AcDbLine
 10
846.9670218791956
 20
-545.8335129280791
 30
0.0
 11
847.6670218791963
 21
-545.1335129280791
 31
0.0
  0
LINE
  5
1BC
330
1F
100
AcDbEntity
  8
0
  6
Continuous
 62
     7
100
AcDbLine
 10
847.6675218788808
 20
-547.6330129277651
 30
0.0
 11
847.6670218791963
 21
-549.1335129280757
 31
0.0
  0
LINE
  5
1BD
330
1F
100
AcDbEntity
  8
0
  6
Continuous
 62
     7
100
AcDbLine
 10
847.6680218791965
 20
-546.6345129280771
 30
0.0
 11
846.9670218791956
 21
-545.933512928079
 31
0.0
  0
LINE
  5
1BE
330
1F
100
AcDbEntity
  8
0
  6
Continuous
 62
     7
100
AcDbLine
 10
847.6675218788808
 20
-547.6330129277651
 30
0.0
 11
846.9670218795103
 21
-548.3335129283931
 31
0.0
  0
LINE
  5
1BF
330
1F
100
AcDbEntity
  8
0
  6
Continuous
 62
     7
100
AcDbLine
 10
847.6670218791963
 20
-532.8735129280791
 30
0.0
 11
847.6670218791963
 21
-545.1335129280791
 31
0.0
  0
LINE
  5
1C0
330
1F
100
AcDbEntity
  8
0
  6
Continuous
 62
     7
100
AcDbLine
 10
847.6675218788808
 20
-547.6330129277651
 30
0.0
 11
847.6680218791965
 21
-546.6345129280771
 31
0.0
  0
LINE
  5
1C1
330
1F
100
AcDbEntity
  8
0
  6
Continuous
 62
     7
100
AcDbLine
 10
847.6670218791963
 20
-545.1335129280791
 30
0.0
 11
847.6680218791965
 21
-546.6345129280771
 31
0.0
  0
LINE
  5
1C2
330
1F
100
AcDbEntity
  8
0
  6
Continuous
 62
     7
100
AcDbLine
 10
847.6670218791963
 20
-550.1335129280757
 30
0.0
 11
847.6670218791963
 21
-551.6335129280773
 31
0.0
  0
LINE
  5
1C3
330
1F
100
AcDbEntity
  8
0
  6
Continuous
 62
     7
100
AcDbLine
 10
847.6670218788817
 20
-552.6335129277614
 30
0.0
 11
847.6670218791963
 21
-551.6335129280773
 31
0.0
  0
LINE
  5
1C4
330
1F
100
AcDbEntity
  8
0
  6
Continuous
 62
     7
100
AcDbLine
 10
847.6670218788817
 20
-552.6335129277614
 30
0.0
 11
847.6670218791963
 21
-554.1335129280773
 31
0.0
  0
LINE
  5
1C5
330
1F
100
AcDbEntity
  8
0
  6
Continuous
 62
     7
100
AcDbLine
 10
847.6670218791963
 20
-555.8396318462917
 30
0.0
 11
847.6670218791963
 21
-554.1335129280773
 31
0.0
  0
LINE
  5
1C6
330
1F
100
AcDbEntity
  8
0
  6
Continuous
 62
     7
100
AcDbLine
 10
846.9670218791956
 20
-545.8335129280791
 30
0.0
 11
846.9670218791956
 21
-545.933512928079
 31
0.0
  0
LINE
  5
1C7
330
1F
100
AcDbEntity
  8
0
  6
Continuous
 62
     7
100
AcDbLine
 10
843.6670218791963
 20
-545.1345130107876
 30
0.0
 11
847.6670218791963
 21
-545.1335129280791
 31
0.0
  0
LINE
  5
1C8
330
1F
100
AcDbEntity
  8
0
  6
Continuous
 62
     7
100
AcDbLine
 10
847.6670218791963
 20
-532.8735129280791
 30
0.0
 11
847.7382211128146
 21
-532.8735129280791
 31
0.0
  0
LINE
  5
1C9
330
1F
100
AcDbEntity
  8
0
  6
Continuous
 62
     7
100
AcDbLine
 10
847.7382211128146
 20
-531.3301071733879
 30
0.0
 11
847.7382211128146
 21
-532.8735129280791
 31
0.0
  0
LINE
  5
1CA
330
1F
100
AcDbEntity
  8
0
  6
Continuous
 62
     7
100
AcDbLine
 10
845.604861486809
 20
-532.8735129280808
 30
0.0
 11
847.7382211128146
 21
-531.3301071733879
 31
0.0
  0
LINE
  5
1CB
330
1F
100
AcDbEntity
  8
0
  6
Continuous
 62
     7
100
AcDbLine
 10
852.9170218791963
 20
-527.5834388630838
 30
0.0
 11
852.9170218791963
 21
-527.4834388630838
 31
0.0
  0
LINE
  5
1CC
330
1F
100
AcDbEntity
  8
0
  6
Continuous
 62
     7
100
AcDbLine
 10
854.3724037149217
 20
-527.4304720682139
 30
0.0
 11
854.3516125458385
 21
-527.3326573081407
 31
0.0
  0
LINE
  5
1CD
330
1F
100
AcDbEntity
  8
0
  6
Continuous
 62
     7
100
AcDbLine
 10
857.0315186452439
 20
-526.2465578237023
 30
0.0
 11
856.9727401200156
 21
-526.1656561242647
 31
0.0
  0
LINE
  5
1CE
330
1F
100
AcDbEntity
  8
0
  6
Continuous
 62
     7
100
AcDbLine
 10
857.7796304724101
 20
-525.6188174654484
 30
0.0
 11
857.7101646353634
 21
-525.5468834854144
 31
0.0
  0
LINE
  5
1CF
330
1F
100
AcDbEntity
  8
0
  6
Continuous
 62
     7
100
AcDbLine
 10
858.4330971544435
 20
-524.8930691903573
 30
0.0
 11
858.3542960790841
 21
-524.8315030428249
 31
0.0
  0
LINE
  5
1D0
330
1F
100
AcDbEntity
  8
0
  6
Continuous
 62
     7
100
AcDbLine
 10
858.9791997056885
 20
-524.083438863078
 30
0.0
 11
858.91702187919
 21
-524.0475404782129
 31
0.0
  0
LINE
  5
1D1
330
1F
100
AcDbEntity
  8
0
  6
Continuous
 62
     7
100
AcDbLine
 10
858.91702187919
 20
-524.0475404782129
 30
0.0
 11
858.8925971653101
 21
-524.033438863078
 31
0.0
  0
LINE
  5
1D2
330
1F
100
AcDbEntity
  8
0
  6
Continuous
 62
     7
100
AcDbLine
 10
858.91702187919
 20
-523.9907838705757
 30
0.0
 11
858.91702187919
 21
-524.0475404782129
 31
0.0
  0
LINE
  5
1D3
330
1F
100
AcDbEntity
  8
0
  6
Continuous
 62
     7
100
AcDbLine
 10
859.3145904757079
 20
-523.1682243576477
 30
0.0
 11
859.4073088611652
 21
-523.2056850169894
 31
0.0
  0
LINE
  5
1D4
330
1F
100
AcDbEntity
  8
0
  6
Continuous
 62
     7
100
AcDbLine
 10
859.7090919631295
 20
-522.2768921322755
 30
0.0
 11
859.612062390502
 21
-522.2526999427157
 31
0.0
  0
LINE
  5
1D5
330
1F
100
AcDbEntity
  8
0
  6
Continuous
 62
     7
100
AcDbLine
 10
859.7792229572391
 20
-521.3046852596249
 30
0.0
 11
859.8786751467754
 21
-521.3151381059515
 31
0.0
  0
LINE
  5
1D6
330
1F
100
AcDbEntity
  8
0
  6
Continuous
 62
     7
100
AcDbLine
 10
859.9127576683308
 20
-520.3391423861605
 30
0.0
 11
859.8128185856289
 21
-520.3426323358308
 31
0.0
  0
LINE
  5
1D7
330
1F
100
AcDbEntity
  8
0
  6
Continuous
 62
     7
100
AcDbLine
 10
859.7121953749823
 20
-519.385266437176
 30
0.0
 11
859.8106761502835
 21
-519.3679016194095
 31
0.0
  0
LINE
  5
1D8
330
1F
100
AcDbEntity
  8
0
  6
Continuous
 62
     7
100
AcDbLine
 10
859.5744174932637
 20
-518.4203199024532
 30
0.0
 11
859.479311841635
 21
-518.4512216018908
 31
0.0
  0
LINE
  5
1D9
330
1F
100
AcDbEntity
  8
0
  6
Continuous
 62
     7
100
AcDbLine
 10
859.208580203292
 20
-517.5148408355543
 30
0.0
 11
859.1187007986622
 21
-517.5586779502332
 31
0.0
  0
LINE
  5
1DA
330
1F
100
AcDbEntity
  8
0
  6
Continuous
 62
     7
100
AcDbLine
 10
858.6373811298284
 20
-516.7250078291297
 30
0.0
 11
858.7202848870833
 21
-516.6690885387826
 31
0.0
  0
LINE
  5
1DB
330
1F
100
AcDbEntity
  8
0
  6
Continuous
 62
     7
100
AcDbLine
 10
851.4170218791927
 20
-516.0834388630782
 30
0.0
 11
852.9170218792009
 21
-516.0834388630784
 31
0.0
  0
LINE
  5
1DC
330
1F
100
AcDbEntity
  8
0
  6
Continuous
 62
     7
100
AcDbLine
 10
858.1190356575402
 20
-515.8995246185656
 30
0.0
 11
858.0447211749919
 21
-515.9664376792017
 31
0.0
  0
LINE
  5
1DD
330
1F
100
AcDbEntity
  8
0
  6
Continuous
 62
     7
100
AcDbLine
 10
857.4165351470041
 20
-515.2211277612447
 30
0.0
 11
857.3522563860346
 21
-515.2977322055567
 31
0.0
  0
LINE
  5
1DE
330
1F
100
AcDbEntity
  8
0
  6
Continuous
 62
     7
100
AcDbLine
 10
856.6264567288312
 20
-514.6471021899825
 30
0.0
 11
856.5734648024076
 21
-514.7319069995982
 31
0.0
  0
LINE
  5
1DF
330
1F
100
AcDbEntity
  8
0
  6
Continuous
 62
     7
100
AcDbLine
 10
855.7235047164207
 20
-514.2799752053435
 30
0.0
 11
855.7641783807288
 21
-514.1886206595791
 31
0.0
  0
LINE
  5
1E0
330
1F
100
AcDbEntity
  8
0
  6
Continuous
 62
     7
100
AcDbLine
 10
854.8464833699176
 20
-513.8546069915091
 30
0.0
 11
854.818919634335
 21
-513.9507331611029
 31
0.0
  0
LINE
  5
1E1
330
1F
100
AcDbEntity
  8
0
  6
Continuous
 62
     7
100
AcDbLine
 10
853.8912335859189
 20
-513.6515623818862
 30
0.0
 11
853.8773162758229
 21
-513.7505891887604
 31
0.0
  0
LINE
  5
1E2
330
1F
100
AcDbEntity
  8
0
  6
Continuous
 62
     7
100
AcDbLine
 10
775.4166456587039
 20
-527.3835129280799
 30
0.0
 11
774.7923071044255
 21
-529.098869008055
 31
0.0
  0
LINE
  5
1E3
330
1F
100
AcDbEntity
  8
0
  6
Continuous
 62
     7
100
AcDbLine
 10
826.4173980996906
 20
-527.3835129280799
 30
0.0
 11
827.0417366539654
 21
-529.0988690080484
 31
0.0
  0
LINE
  5
1E4
330
1F
100
AcDbEntity
  8
0
  6
Continuous
 62
     7
100
AcDbLine
 10
756.2291822715846
 20
-532.8735129280808
 30
0.0
 11
755.123286623017
 21
-532.07343886308
 31
0.0
  0
LINE
  5
1E5
330
1F
100
AcDbEntity
  8
0
  6
Continuous
 62
     7
100
AcDbLine
 10
893.3714786171074
 20
-527.3122707346463
 30
0.0
 11
893.3714786171056
 21
-514.8550955724991
 31
0.0
  0
LINE
  5
1E6
330
1F
100
AcDbEntity
  8
1
  6
Continuous
 62
     7
100
AcDbLine
 10
893.3714786171074
 20
-525.9670858982863
 30
0.0
 11
951.3714786171074
 21
-525.9670858982863
 31
0.0
  0
LINE
  5
1E7
330
1F
100
AcDbEntity
  8
0
  6
Continuous
 62
     7
100
AcDbLine
 10
951.3714786171056
 20
-514.8550955724991
 30
0.0
 11
951.3714786171074
 21
-527.3122707346397
 31
0.0
  0
LINE
  5
1E8
330
1F
100
AcDbEntity
  8
1
  6
Continuous
 62
     7
100
AcDbLine
 10
893.3714786171056
 20
-514.8550955724991
 30
0.0
 11
951.3714786171056
 21
-514.8550955724991
 31
0.0
  0
LINE
  5
1E9
330
1F
100
AcDbEntity
  8
0
  6
Continuous
 62
     7
100
AcDbLine
 10
893.3714786171056
 20
-520.0679742577253
 30
0.0
 11
914.8566728464509
 21
-520.067974257727
 31
0.0
  0
LINE
  5
1EA
330
1F
100
AcDbEntity
  8
0
  6
Continuous
 62
     7
100
AcDbLine
 10
914.8566728464509
 20
-517.2436727071208
 30
0.0
 11
893.3714786171056
 21
-517.2436727071233
 31
0.0
  0
LINE
  5
1EB
330
1F
100
AcDbEntity
  8
0
  6
Continuous
 62
     7
100
AcDbLine
 10
919.975474999969
 20
-520.9622707346443
 30
0.0
 11
920.4950902422404
 21
-521.8622707346441
 31
0.0
  0
LINE
  5
1EC
330
1F
100
AcDbEntity
  8
0
  6
Continuous
 62
     7
100
AcDbLine
 10
914.8566728464518
 20
-521.0439699775181
 30
0.0
 11
893.3714786171056
 21
-521.0439699775166
 31
0.0
  0
LINE
  5
1ED
330
1F
100
AcDbEntity
  8
0
  6
Continuous
 62
     7
100
AcDbLine
 10
951.3714786171056
 20
-521.0439699775164
 30
0.0
 11
929.8862843877594
 21
-521.0439699775164
 31
0.0
  0
LINE
  5
1EE
330
1F
100
AcDbEntity
  8
0
  6
Continuous
 62
     7
100
AcDbLine
 10
914.8566728464509
 20
-520.067974257727
 30
0.0
 11
914.8566728464518
 21
-521.0439699775181
 31
0.0
  0
LINE
  5
1EF
330
1F
100
AcDbEntity
  8
0
  6
Continuous
 62
     7
100
AcDbLine
 10
915.3566728464518
 20
-522.1622707346448
 30
0.0
 11
915.3566728464509
 21
-520.2622707346447
 31
0.0
  0
LINE
  5
1F0
330
1F
100
AcDbEntity
  8
0
  6
Continuous
 62
     7
100
AcDbLine
 10
918.0702191116432
 20
-524.0622707346445
 30
0.0
 11
915.3566728464509
 21
-519.3622707346449
 31
0.0
  0
LINE
  5
1F1
330
1F
100
AcDbEntity
  8
0
  6
Continuous
 62
     7
100
AcDbLine
 10
923.8437218035394
 20
-519.4622707346438
 30
0.0
 11
921.1879105652677
 21
-524.0622707346441
 31
0.0
  0
LINE
  5
1F2
330
1F
100
AcDbEntity
  8
0
  6
Continuous
 62
     7
100
AcDbLine
 10
919.398124730779
 20
-516.5622707346446
 30
0.0
 11
917.6372064097511
 21
-519.6122707346445
 31
0.0
  0
LINE
  5
1F3
330
1F
100
AcDbEntity
  8
0
  6
Continuous
 62
     7
100
AcDbLine
 10
917.6372064097511
 20
-519.6122707346445
 30
0.0
 11
918.1568216520207
 21
-520.5122707346446
 31
0.0
  0
LINE
  5
1F4
330
1F
100
AcDbEntity
  8
0
  6
Continuous
 62
     7
100
AcDbLine
 10
929.3862843877594
 20
-523.1622707346428
 30
0.0
 11
929.3862843877594
 21
-521.262270734643
 31
0.0
  0
LINE
  5
1F5
330
1F
100
AcDbEntity
  8
0
  6
Continuous
 62
     7
100
AcDbLine
 10
920.9569704575895
 20
-516.5622707346442
 30
0.0
 11
920.4373552153199
 21
-516.5622707346445
 31
0.0
  0
LINE
  5
1F6
330
1F
100
AcDbEntity
  8
0
  6
Continuous
 62
     7
100
AcDbLine
 10
922.5158161844026
 20
-516.5622707346441
 30
0.0
 11
921.9962009421322
 21
-516.5622707346441
 31
0.0
  0
LINE
  5
1F7
330
1F
100
AcDbEntity
  8
0
  6
Continuous
 62
     7
100
AcDbLine
 10
922.3714786171056
 20
-520.3122707346441
 30
0.0
 11
922.3714786171056
 21
-518.6122707346441
 31
0.0
  0
LINE
  5
1F8
330
1F
100
AcDbEntity
  8
0
  6
Continuous
 62
     7
100
AcDbLine
 10
929.3862843877594
 20
-517.5622707346433
 30
0.0
 11
929.3862843877594
 21
-516.5622707346433
 31
0.0
  0
LINE
  5
1F9
330
1F
100
AcDbEntity
  8
0
  6
Continuous
 62
     7
100
AcDbLine
 10
928.2893188762989
 20
-516.5622707346436
 30
0.0
 11
929.3862843877594
 21
-518.4622707346435
 31
0.0
  0
LINE
  5
1FA
330
1F
100
AcDbEntity
  8
0
  6
Continuous
 62
     7
100
AcDbLine
 10
925.1690738812974
 20
-517.6578478712378
 30
0.0
 11
923.2714786171052
 21
-518.7534250078319
 31
0.0
  0
LINE
  5
1FB
330
1F
100
AcDbEntity
  8
0
  6
Continuous
 62
     7
100
AcDbLine
 10
925.5469050976478
 20
-518.3122707346437
 30
0.0
 11
925.1690738812974
 21
-517.6578478712378
 31
0.0
  0
LINE
  5
1FC
330
1F
100
AcDbEntity
  8
0
  6
Continuous
 62
     7
100
AcDbLine
 10
923.2714786171052
 20
-518.7534250078319
 30
0.0
 11
923.2714786171052
 21
-516.5622707346441
 31
0.0
  0
LINE
  5
1FD
330
1F
100
AcDbEntity
  8
0
  6
Continuous
 62
     7
100
AcDbLine
 10
925.0561573688371
 20
-516.5622707346438
 30
0.0
 11
923.2714786171052
 21
-516.5622707346441
 31
0.0
  0
LINE
  5
1FE
330
1F
100
AcDbEntity
  8
0
  6
Continuous
 62
     7
100
AcDbLine
 10
926.672738122568
 20
-516.5622707346437
 30
0.0
 11
925.5757726111076
 21
-516.5622707346438
 31
0.0
  0
LINE
  5
1FF
330
1F
100
AcDbEntity
  8
0
  6
Continuous
 62
     7
100
AcDbLine
 10
926.5572680687299
 20
-521.8622707346432
 30
0.0
 11
927.0768833110012
 21
-520.9622707346433
 31
0.0
  0
LINE
  5
200
330
1F
100
AcDbEntity
  8
0
  6
Continuous
 62
     7
100
AcDbLine
 10
925.2811573688375
 20
-521.4725593029407
 30
0.0
 11
925.806712718784
 21
-520.5622707346436
 31
0.0
  0
LINE
  5
201
330
1F
100
AcDbEntity
  8
0
  6
Continuous
 62
     7
100
AcDbLine
 10
929.8862843877594
 20
-520.0679742577253
 30
0.0
 11
929.8862843877594
 21
-521.0439699775164
 31
0.0
  0
LINE
  5
202
330
1F
100
AcDbEntity
  8
0
  6
Continuous
 62
     7
100
AcDbLine
 10
929.3862843877594
 20
-520.3622707346432
 30
0.0
 11
929.3862843877594
 21
-518.4622707346435
 31
0.0
  0
LINE
  5
203
330
1F
100
AcDbEntity
  8
0
  6
Continuous
 62
     7
100
AcDbLine
 10
929.3862843877594
 20
-516.5622707346433
 30
0.0
 11
928.8089341185694
 21
-516.5622707346433
 31
0.0
  0
LINE
  5
204
330
1F
100
AcDbEntity
  8
0
  6
Continuous
 62
     7
100
AcDbLine
 10
928.2893188762989
 20
-516.5622707346436
 30
0.0
 11
927.1923533648385
 21
-516.5622707346436
 31
0.0
  0
LINE
  5
205
330
1F
100
AcDbEntity
  8
0
  6
Continuous
 62
     7
100
AcDbLine
 10
929.3862843877594
 20
-517.5622707346433
 30
0.0
 11
928.8089341185694
 21
-516.5622707346433
 31
0.0
  0
LINE
  5
206
330
1F
100
AcDbEntity
  8
0
  6
Continuous
 62
     7
100
AcDbLine
 10
926.4069903937568
 20
-522.1225593029404
 30
0.0
 11
925.2811573688375
 21
-521.4725593029407
 31
0.0
  0
LINE
  5
207
330
1F
100
AcDbEntity
  8
0
  6
Continuous
 62
     7
100
AcDbLine
 10
925.806712718784
 20
-520.5622707346436
 30
0.0
 11
926.5572680687299
 21
-521.8622707346432
 31
0.0
  0
LINE
  5
208
330
1F
100
AcDbEntity
  8
0
  6
Continuous
 62
     7
100
AcDbLine
 10
927.0768833110012
 20
-520.9622707346433
 30
0.0
 11
925.806712718784
 21
-518.7622707346438
 31
0.0
  0
LINE
  5
209
330
1F
100
AcDbEntity
  8
0
  6
Continuous
 62
     7
100
AcDbLine
 10
929.3862843877594
 20
-520.3622707346432
 30
0.0
 11
927.1923533648385
 21
-516.5622707346436
 31
0.0
  0
LINE
  5
20A
330
1F
100
AcDbEntity
  8
0
  6
Continuous
 62
     7
100
AcDbLine
 10
922.3714786171056
 20
-520.3122707346441
 30
0.0
 11
923.8437218035394
 21
-519.4622707346438
 31
0.0
  0
LINE
  5
20B
330
1F
100
AcDbEntity
  8
0
  6
Continuous
 62
     7
100
AcDbLine
 10
920.4950902422404
 20
-521.8622707346441
 30
0.0
 11
922.3714786171056
 21
-518.6122707346441
 31
0.0
  0
LINE
  5
20C
330
1F
100
AcDbEntity
  8
0
  6
Continuous
 62
     7
100
AcDbLine
 10
922.5158161844026
 20
-516.5622707346441
 30
0.0
 11
919.975474999969
 21
-520.9622707346443
 31
0.0
  0
LINE
  5
20D
330
1F
100
AcDbEntity
  8
0
  6
Continuous
 62
     7
100
AcDbLine
 10
919.4558597576977
 20
-520.9622707346443
 30
0.0
 11
921.9962009421322
 21
-516.5622707346441
 31
0.0
  0
LINE
  5
20E
330
1F
100
AcDbEntity
  8
0
  6
Continuous
 62
     7
100
AcDbLine
 10
920.7260303499158
 20
-523.1622707346438
 30
0.0
 11
919.4558597576977
 21
-520.9622707346443
 31
0.0
  0
LINE
  5
20F
330
1F
100
AcDbEntity
  8
0
  6
Continuous
 62
     7
100
AcDbLine
 10
918.4166292731568
 20
-520.9622707346446
 30
0.0
 11
920.148680080725
 21
-523.9622707346443
 31
0.0
  0
LINE
  5
210
330
1F
100
AcDbEntity
  8
0
  6
Continuous
 62
     7
100
AcDbLine
 10
920.9569704575895
 20
-516.5622707346442
 30
0.0
 11
918.4166292731568
 21
-520.9622707346446
 31
0.0
  0
LINE
  5
211
330
1F
100
AcDbEntity
  8
0
  6
Continuous
 62
     7
100
AcDbLine
 10
918.1568216520207
 20
-520.5122707346446
 30
0.0
 11
920.4373552153199
 21
-516.5622707346445
 31
0.0
  0
LINE
  5
212
330
1F
100
AcDbEntity
  8
0
  6
Continuous
 62
     7
100
AcDbLine
 10
926.672738122568
 20
-516.5622707346437
 30
0.0
 11
929.3862843877594
 21
-521.262270734643
 31
0.0
  0
LINE
  5
213
330
1F
100
AcDbEntity
  8
0
  6
Continuous
 62
     7
100
AcDbLine
 10
925.806712718784
 20
-518.7622707346438
 30
0.0
 11
922.7467562920799
 21
-524.0622707346436
 31
0.0
  0
LINE
  5
214
330
1F
100
AcDbEntity
  8
0
  6
Continuous
 62
     7
100
AcDbLine
 10
922.2271410498086
 20
-524.0622707346436
 30
0.0
 11
925.5469050976478
 21
-518.3122707346437
 31
0.0
  0
LINE
  5
215
330
1F
100
AcDbEntity
  8
0
  6
Continuous
 62
     7
100
AcDbLine
 10
915.3566728464509
 20
-517.4622707346449
 30
0.0
 11
919.1671846231036
 21
-524.0622707346441
 31
0.0
  0
LINE
  5
216
330
1F
100
AcDbEntity
  8
0
  6
Continuous
 62
     7
100
AcDbLine
 10
915.3566728464509
 20
-520.2622707346447
 30
0.0
 11
917.5506038693718
 21
-524.0622707346441
 31
0.0
  0
LINE
  5
217
330
1F
100
AcDbEntity
  8
0
  6
Continuous
 62
     7
100
AcDbLine
 10
929.8862843877594
 20
-520.0679742577253
 30
0.0
 11
951.3714786171056
 21
-520.0679742577253
 31
0.0
  0
LINE
  5
218
330
1F
100
AcDbEntity
  8
0
  6
Continuous
 62
     7
100
AcDbLine
 10
915.3566728464509
 20
-519.3622707346449
 30
0.0
 11
915.3566728464509
 21
-517.4622707346449
 31
0.0
  0
LINE
  5
219
330
1F
100
AcDbEntity
  8
0
  6
Continuous
 62
     7
100
AcDbLine
 10
951.3714786171056
 20
-517.2436727071167
 30
0.0
 11
929.8862843877594
 21
-517.2436727071192
 31
0.0
  0
LINE
  5
21A
330
1F
100
AcDbEntity
  8
0
  6
Continuous
 62
     7
100
AcDbLine
 10
914.8566728464509
 20
-516.3979204103492
 30
0.0
 11
914.8566728464509
 21
-517.2436727071208
 31
0.0
  0
LINE
  5
21B
330
1F
100
AcDbEntity
  8
0
  6
Continuous
 62
     7
100
AcDbLine
 10
914.8566728464509
 20
-516.3979204103492
 30
0.0
 11
893.3714786171056
 21
-516.3979204103517
 31
0.0
  0
LINE
  5
21C
330
1F
100
AcDbEntity
  8
0
  6
Continuous
 62
     7
100
AcDbLine
 10
919.398124730779
 20
-516.5622707346446
 30
0.0
 11
915.3566728464509
 21
-516.5622707346448
 31
0.0
  0
LINE
  5
21D
330
1F
100
AcDbEntity
  8
0
  6
Continuous
 62
     7
100
AcDbLine
 10
951.3714786171056
 20
-516.3979204103451
 30
0.0
 11
929.8862843877594
 21
-516.3979204103474
 31
0.0
  0
LINE
  5
21E
330
1F
100
AcDbEntity
  8
0
  6
Continuous
 62
     7
100
AcDbLine
 10
929.8862843877594
 20
-516.3979204103474
 30
0.0
 11
929.8862843877594
 21
-517.2436727071192
 31
0.0
  0
LINE
  5
21F
330
1F
100
AcDbEntity
  8
0
  6
Continuous
 62
     7
100
AcDbLine
 10
951.3714786171074
 20
-527.3122707346397
 30
0.0
 11
893.3714786171074
 21
-527.3122707346463
 31
0.0
  0
LINE
  5
220
330
1F
100
AcDbEntity
  8
0
  6
Continuous
 62
     7
100
AcDbLine
 10
929.8862843877594
 20
-524.6219010619225
 30
0.0
 11
951.3714786171056
 21
-524.62190106192
 31
0.0
  0
LINE
  5
221
330
1F
100
AcDbEntity
  8
0
  6
Continuous
 62
     7
100
AcDbLine
 10
929.8862843877594
 20
-523.8122707346429
 30
0.0
 11
951.3714786171056
 21
-523.8122707346404
 31
0.0
  0
LINE
  5
222
330
1F
100
AcDbEntity
  8
0
  6
Continuous
 62
     7
100
AcDbLine
 10
925.2870974765135
 20
-524.0622707346437
 30
0.0
 11
925.806712718784
 21
-523.1622707346432
 31
0.0
  0
LINE
  5
223
330
1F
100
AcDbEntity
  8
0
  6
Continuous
 62
     7
100
AcDbLine
 10
924.8311573688386
 20
-522.2519821663466
 30
0.0
 11
925.956990393757
 21
-522.9019821663463
 31
0.0
  0
LINE
  5
224
330
1F
100
AcDbEntity
  8
0
  6
Continuous
 62
     7
100
AcDbLine
 10
925.806712718784
 20
-523.1622707346432
 30
0.0
 11
924.3056020188903
 21
-523.1622707346435
 31
0.0
  0
LINE
  5
225
330
1F
100
AcDbEntity
  8
0
  6
Continuous
 62
     7
100
AcDbLine
 10
915.9340231156418
 20
-524.0622707346448
 30
0.0
 11
915.3566728464518
 21
-524.0622707346448
 31
0.0
  0
LINE
  5
226
330
1F
100
AcDbEntity
  8
0
  6
Continuous
 62
     7
100
AcDbLine
 10
915.3566728464518
 20
-524.0622707346448
 30
0.0
 11
915.3566728464518
 21
-523.0622707346446
 31
0.0
  0
LINE
  5
227
330
1F
100
AcDbEntity
  8
0
  6
Continuous
 62
     7
100
AcDbLine
 10
915.3566728464518
 20
-523.0622707346446
 30
0.0
 11
915.9340231156418
 21
-524.0622707346448
 31
0.0
  0
LINE
  5
228
330
1F
100
AcDbEntity
  8
0
  6
Continuous
 62
     7
100
AcDbLine
 10
917.5506038693718
 20
-524.0622707346441
 30
0.0
 11
916.4536383579123
 21
-524.0622707346441
 31
0.0
  0
LINE
  5
229
330
1F
100
AcDbEntity
  8
0
  6
Continuous
 62
     7
100
AcDbLine
 10
919.1671846231036
 20
-524.0622707346441
 30
0.0
 11
918.0702191116432
 21
-524.0622707346445
 31
0.0
  0
LINE
  5
22A
330
1F
100
AcDbEntity
  8
0
  6
Continuous
 62
     7
100
AcDbLine
 10
920.264150134564
 20
-523.9622707346441
 30
0.0
 11
920.148680080725
 21
-523.9622707346443
 31
0.0
  0
LINE
  5
22B
330
1F
100
AcDbEntity
  8
0
  6
Continuous
 62
     7
100
AcDbLine
 10
921.1879105652677
 20
-524.0622707346441
 30
0.0
 11
919.686799865374
 21
-524.0622707346438
 31
0.0
  0
LINE
  5
22C
330
1F
100
AcDbEntity
  8
0
  6
Continuous
 62
     7
100
AcDbLine
 10
922.7467562920799
 20
-524.0622707346436
 30
0.0
 11
922.2271410498086
 21
-524.0622707346436
 31
0.0
  0
LINE
  5
22D
330
1F
100
AcDbEntity
  8
0
  6
Continuous
 62
     7
100
AcDbLine
 10
920.264150134564
 20
-523.9622707346441
 30
0.0
 11
920.7260303499158
 21
-523.1622707346438
 31
0.0
  0
LINE
  5
22E
330
1F
100
AcDbEntity
  8
0
  6
Continuous
 62
     7
100
AcDbLine
 10
924.3056020188903
 20
-523.1622707346435
 30
0.0
 11
924.8311573688386
 21
-522.2519821663466
 31
0.0
  0
LINE
  5
22F
330
1F
100
AcDbEntity
  8
0
  6
Continuous
 62
     7
100
AcDbLine
 10
916.4536383579123
 20
-524.0622707346441
 30
0.0
 11
915.3566728464518
 21
-522.1622707346448
 31
0.0
  0
LINE
  5
230
330
1F
100
AcDbEntity
  8
0
  6
Continuous
 62
     7
100
AcDbLine
 10
929.8862843877594
 20
-523.8122707346429
 30
0.0
 11
929.8862843877594
 21
-524.6219010619225
 31
0.0
  0
LINE
  5
231
330
1F
100
AcDbEntity
  8
0
  6
Continuous
 62
     7
100
AcDbLine
 10
925.956990393757
 20
-522.9019821663463
 30
0.0
 11
926.4069903937568
 21
-522.1225593029404
 31
0.0
  0
LINE
  5
232
330
1F
100
AcDbEntity
  8
0
  6
Continuous
 62
     7
100
AcDbLine
 10
893.3714786171056
 20
-524.6219010619266
 30
0.0
 11
914.8566728464518
 21
-524.6219010619241
 31
0.0
  0
LINE
  5
233
330
1F
100
AcDbEntity
  8
0
  6
Continuous
 62
     7
100
AcDbLine
 10
914.8566728464518
 20
-523.8122707346446
 30
0.0
 11
914.8566728464518
 21
-524.6219010619241
 31
0.0
  0
LINE
  5
234
330
1F
100
AcDbEntity
  8
0
  6
Continuous
 62
     7
100
AcDbLine
 10
893.3714786171056
 20
-523.812270734647
 30
0.0
 11
914.8566728464518
 21
-523.8122707346446
 31
0.0
  0
LINE
  5
235
330
1F
100
AcDbEntity
  8
0
  6
Continuous
 62
     7
100
AcDbLine
 10
929.3862843877594
 20
-524.0622707346432
 30
0.0
 11
925.2870974765135
 21
-524.0622707346437
 31
0.0
  0
LINE
  5
236
330
1F
100
AcDbEntity
  8
0
  6
Continuous
 62
     7
100
AcDbLine
 10
929.3862843877594
 20
-523.1622707346428
 30
0.0
 11
925.5757726111076
 21
-516.5622707346438
 31
0.0
  0
LINE
  5
237
330
1F
100
AcDbEntity
  8
0
  6
Continuous
 62
     7
100
AcDbLine
 10
919.686799865374
 20
-524.0622707346438
 30
0.0
 11
915.3566728464509
 21
-516.5622707346448
 31
0.0
  0
LINE
  5
238
330
1F
100
AcDbEntity
  8
0
  6
Continuous
 62
     7
100
AcDbLine
 10
925.0561573688371
 20
-516.5622707346438
 30
0.0
 11
929.3862843877594
 21
-524.0622707346432
 31
0.0
  0
LINE
  5
239
330
1F
100
AcDbEntity
  8
1
  6
DOT_CENTER
 62
     2
100
AcDbLine
 10
832.5270218791891
 20
-538.5834388630759
 30
0.0
 11
817.3070218791963
 21
-538.5834388630759
 31
0.0
  0
LINE
  5
23A
330
1F
100
AcDbEntity
  8
1
  6
DOT_CENTER
 62
     2
100
AcDbLine
 10
824.9170218791927
 20
-530.9734388630795
 30
0.0
 11
824.9170218791927
 21
-546.1934388630723
 31
0.0
  0
LINE
  5
23B
330
1F
100
AcDbEntity
  8
1
  6
DOT_CENTER
 62
     2
100
AcDbLine
 10
784.5270218791957
 20
-538.5834388630798
 30
0.0
 11
769.307021879197
 21
-538.5834388630798
 31
0.0
  0
LINE
  5
23C
330
1F
100
AcDbEntity
  8
1
  6
DOT_CENTER
 62
     2
100
AcDbLine
 10
776.9170218791963
 20
-530.9734388630804
 30
0.0
 11
776.9170218791963
 21
-546.1934388630791
 31
0.0
  0
ARC
  5
23D
330
1F
100
AcDbEntity
  8
Sichtbare_Kanten_TC_020513_DIN_
  6
Continuous
 62
     7
100
AcDbCircle
 10
802.4170218791963
 20
-584.6967338817121
 30
0.0
 40
0.375
100
AcDbArc
 50
0.0
 51
180.0
  0
ARC
  5
23E
330
1F
100
AcDbEntity
  8
Sichtbare_Kanten_TC_020513_DIN_
  6
Continuous
 62
     7
100
AcDbCircle
 10
802.4170218791963
 20
-589.8443304359772
 30
0.0
 40
0.3749999999992067
100
AcDbArc
 50
215.9095761770481
 51
0.0
  0
ARC
  5
23F
330
1F
100
AcDbEntity
  8
Sichtbare_Kanten_TC_020513_DIN_
  6
Continuous
 62
     7
100
AcDbCircle
 10
799.4170218791963
 20
-589.8443304359772
 30
0.0
 40
0.375
100
AcDbArc
 50
180.0
 51
324.0904238230538
  0
ARC
  5
240
330
1F
100
AcDbEntity
  8
Sichtbare_Kanten_TC_020513_DIN_
  6
Continuous
 62
     7
100
AcDbCircle
 10
799.4170218791963
 20
-582.9226954201741
 30
0.0
 40
0.375
100
AcDbArc
 50
0.0
 51
180.0
  0
ARC
  5
241
330
1F
100
AcDbEntity
  8
Sichtbare_Kanten_TC_020513_DIN_
  6
Continuous
 62
     7
100
AcDbCircle
 10
803.9920218791966
 20
-588.9356765898232
 30
0.0
 40
0.375
100
AcDbArc
 50
180.0
 51
0.0
  0
ARC
  5
242
330
1F
100
AcDbEntity
  8
Sichtbare_Kanten_TC_020513_DIN_
  6
Continuous
 62
     7
100
AcDbCircle
 10
800.9170218791963
 20
-582.0573108047892
 30
0.0
 40
0.3750000000001289
100
AcDbArc
 50
60.01836063107429
 51
240.0183606312461
  0
ARC
  5
243
330
1F
100
AcDbEntity
  8
Sichtbare_Kanten_TC_020513_DIN_
  6
Continuous
 62
     7
100
AcDbCircle
 10
803.9920218791966
 20
-583.8313492663272
 30
0.0
 40
0.375
100
AcDbArc
 50
0.0
 51
60.0183606310957
  0
ARC
  5
244
330
1F
100
AcDbEntity
  8
Sichtbare_Kanten_TC_020513_DIN_
  6
Continuous
 62
     7
100
AcDbCircle
 10
805.4920218791966
 20
-584.6967338817121
 30
0.0
 40
0.375
100
AcDbArc
 50
0.0
 51
180.0
  0
ARC
  5
245
330
1F
100
AcDbEntity
  8
Sichtbare_Kanten_TC_020513_DIN_
  6
Continuous
 62
     7
100
AcDbCircle
 10
805.4920218791966
 20
-588.0702919744382
 30
0.0
 40
0.375
100
AcDbArc
 50
180.0
 51
0.0
  0
ARC
  5
246
330
1F
100
AcDbEntity
  8
Sichtbare_Kanten_TC_020513_DIN_
  6
Continuous
 62
     7
100
AcDbCircle
 10
797.9170218791963
 20
-588.9789458205922
 30
0.0
 40
0.3749999999992502
100
AcDbArc
 50
240.0183606312375
 51
0.0
  0
ARC
  5
247
330
1F
100
AcDbEntity
  8
Sichtbare_Kanten_TC_020513_DIN_
  6
Continuous
 62
     7
100
AcDbCircle
 10
795.6670218791963
 20
-587.6808688975151
 30
0.0
 40
0.3749999999999319
100
AcDbArc
 50
60.01836063105692
 51
240.0183606312548
  0
ARC
  5
248
330
1F
100
AcDbEntity
  8
Sichtbare_Kanten_TC_020513_DIN_
  6
Continuous
 62
     7
100
AcDbCircle
 10
795.6670218791963
 20
-586.3835129280752
 30
0.0
 40
0.375
100
AcDbArc
 50
90.0
 51
270.0
  0
ARC
  5
249
330
1F
100
AcDbEntity
  8
Sichtbare_Kanten_TC_020513_DIN_
  6
Continuous
 62
     7
100
AcDbCircle
 10
795.6670218791963
 20
-585.0861569586351
 30
0.0
 40
0.3749999999993487
100
AcDbArc
 50
119.9816393687538
 51
299.9816393689258
  0
ARC
  5
24A
330
1F
100
AcDbEntity
  8
Sichtbare_Kanten_TC_020513_DIN_
  6
Continuous
 62
     7
100
AcDbCircle
 10
797.9170218791963
 20
-583.7880800355582
 30
0.0
 40
0.375
100
AcDbArc
 50
0.0
 51
119.9816393687452
  0
ARC
  5
24B
330
1F
100
AcDbEntity
  8
1
  6
Continuous
 62
     7
100
AcDbCircle
 10
824.9167717602489
 20
-539.3835130171714
 30
0.0
 40
3.100173408186971
100
AcDbArc
 50
245.3704439104961
 51
64.85228520403803
  0
ARC
  5
24C
330
1F
100
AcDbEntity
  8
1
  6
Continuous
 62
     7
100
AcDbCircle
 10
824.9167717602489
 20
-539.3835130171714
 30
0.0
 40
3.100173408187086
100
AcDbArc
 50
64.85228520403803
 51
174.6387576598426
  0
ARC
  5
24D
330
1F
100
AcDbEntity
  8
1
  6
Continuous
 62
     7
100
AcDbCircle
 10
776.9167717602489
 20
-539.3835130171714
 30
0.0
 40
3.100173408186912
100
AcDbArc
 50
5.68639290840967
 51
64.85228520403803
  0
ARC
  5
24E
330
1F
100
AcDbEntity
  8
1
  6
Continuous
 62
     7
100
AcDbCircle
 10
776.9167717602489
 20
-539.3835130171714
 30
0.0
 40
3.100173408187086
100
AcDbArc
 50
64.85228520403803
 51
294.5118065697226
  0
ARC
  5
24F
330
1F
100
AcDbEntity
  8
0
  6
Continuous
 62
     7
100
AcDbCircle
 10
941.2680220367099
 20
-606.3835129280759
 30
0.0
 40
2.5
100
AcDbArc
 50
270.0
 51
0.00000000000782
  0
ARC
  5
250
330
1F
100
AcDbEntity
  8
0
  6
Continuous
 62
     7
100
AcDbCircle
 10
903.2680220367099
 20
-606.3835129280801
 30
0.0
 40
2.5
100
AcDbArc
 50
180.0000000000104
 51
270.0
  0
ARC
  5
251
330
1F
100
AcDbEntity
  8
0
  6
Continuous
 62
     7
100
AcDbCircle
 10
824.9170218791945
 20
-538.5834388630788
 30
0.0
 40
7.499999999994126
100
AcDbArc
 50
240.8483356978326
 51
255.1947549093055
  0
ARC
  5
252
330
1F
100
AcDbEntity
  8
0
  6
Continuous
 62
     7
100
AcDbCircle
 10
824.9167717602489
 20
-539.3835130171714
 30
0.0
 40
2.400137355021319
100
AcDbArc
 50
56.7085936063668
 51
123.3272332957567
  0
ARC
  5
253
330
1F
100
AcDbEntity
  8
0
  6
Continuous
 62
     7
100
AcDbCircle
 10
776.9170218791963
 20
-538.5834388630798
 30
0.0
 40
5.099999999999454
100
AcDbArc
 50
359.9999999999974
 51
304.7159487291198
  0
ARC
  5
254
330
1F
100
AcDbEntity
  8
0
  6
Continuous
 62
     7
100
AcDbCircle
 10
776.9170218791963
 20
-538.5834388630798
 30
0.0
 40
5.099999999999454
100
AcDbArc
 50
338.2980418694145
 51
359.9999999999974
  0
ARC
  5
255
330
1F
100
AcDbEntity
  8
0
  6
Continuous
 62
     7
100
AcDbCircle
 10
776.9170218791963
 20
-538.5834388630798
 30
0.0
 40
5.09999999999935
100
AcDbArc
 50
304.7159487291198
 51
338.2980418694145
  0
ARC
  5
256
330
1F
100
AcDbEntity
  8
0
  6
Continuous
 62
     7
100
AcDbCircle
 10
776.9167717602489
 20
-539.3835130171714
 30
0.0
 40
2.400137355021319
100
AcDbArc
 50
56.7085936063668
 51
123.3272332957204
  0
ARC
  5
257
330
1F
100
AcDbEntity
  8
0
  6
Continuous
 62
     7
100
AcDbCircle
 10
778.3993133316302
 20
-542.6641113627466
 30
0.0
 40
0.4999999999964079
100
AcDbArc
 50
60.00000000168786
 51
83.61790080466119
  0
ARC
  5
258
330
1F
100
AcDbEntity
  8
0
  6
Continuous
 62
     7
100
AcDbCircle
 10
778.3993133316065
 20
-542.6641113627438
 30
0.0
 40
0.4999999999969879
100
AcDbArc
 50
83.61790080193349
 51
114.3146652863506
  0
ARC
  5
259
330
1F
100
AcDbEntity
  8
0
  6
Continuous
 62
     7
100
AcDbCircle
 10
781.4697095586902
 20
-540.3953535666408
 30
0.0
 40
0.1999999999999186
100
AcDbArc
 50
338.2980418693472
 51
59.99999999991572
  0
ARC
  5
25A
330
1F
100
AcDbEntity
  8
0
  6
Continuous
 62
     7
100
AcDbCircle
 10
779.7076128020757
 20
-542.6111680373333
 30
0.0
 40
0.1999999999998617
100
AcDbArc
 50
240.0000000001576
 51
304.7159487291193
  0
ARC
  5
25B
330
1F
100
AcDbEntity
  8
0
  6
Continuous
 62
     7
100
AcDbCircle
 10
780.4992717133831
 20
-539.0267235379815
 30
0.0
 40
0.5000494564156373
100
AcDbArc
 50
185.6941123466223
 51
240.0087776339601
  0
ARC
  5
25C
330
1F
100
AcDbEntity
  8
0
  6
Continuous
 62
     7
100
AcDbCircle
 10
822.1264309563161
 20
-542.6111680373277
 30
0.0
 40
0.1999999999998547
100
AcDbArc
 50
235.2840512707694
 51
299.9999999999075
  0
ARC
  5
25D
330
1F
100
AcDbEntity
  8
0
  6
Continuous
 62
     7
100
AcDbCircle
 10
776.9170218791963
 20
-538.5834388630798
 30
0.0
 40
7.500000000000321
100
AcDbArc
 50
240.8483356977317
 51
255.1947549091088
  0
ARC
  5
25E
330
1F
100
AcDbEntity
  8
0
  6
Continuous
 62
     7
100
AcDbCircle
 10
776.9170218792309
 20
-538.5834388631018
 30
0.0
 40
7.499999999998257
100
AcDbArc
 50
234.1156709123451
 51
240.8483356974191
  0
ARC
  5
25F
330
1F
100
AcDbEntity
  8
0
  6
Continuous
 62
     7
100
AcDbCircle
 10
776.9170218791963
 20
-538.5834388630798
 30
0.0
 40
7.500000000000383
100
AcDbArc
 50
49.46332730888449
 51
94.55775611441437
  0
ARC
  5
260
330
1F
100
AcDbEntity
  8
0
  6
Continuous
 62
     7
100
AcDbCircle
 10
824.9170218791963
 20
-538.5834388630734
 30
0.0
 40
7.500000000000274
100
AcDbArc
 50
130.5366726911894
 51
230.0435976904037
  0
ARC
  5
261
330
1F
100
AcDbEntity
  8
0
  6
Continuous
 62
     7
100
AcDbCircle
 10
824.9170218791945
 20
-538.5834388630736
 30
0.0
 40
5.099999999998545
100
AcDbArc
 50
179.9999999999962
 51
201.701958130593
  0
ARC
  5
262
330
1F
100
AcDbEntity
  8
0
  6
Continuous
 62
     7
100
AcDbCircle
 10
820.3643341997025
 20
-540.3953535666351
 30
0.0
 40
0.2000000000003165
100
AcDbArc
 50
120.000000000068
 51
201.7019581305317
  0
ARC
  5
263
330
1F
100
AcDbEntity
  8
0
  6
Continuous
 62
     7
100
AcDbCircle
 10
824.9170218791927
 20
-538.5834388630759
 30
0.0
 40
5.099999999995234
100
AcDbArc
 50
201.7019581305768
 51
235.2840512708901
  0
ARC
  5
264
330
1F
100
AcDbEntity
  8
0
  6
Continuous
 62
     7
100
AcDbCircle
 10
821.3347304267767
 20
-539.0268046668479
 30
0.0
 40
0.4999999999999425
100
AcDbArc
 50
300.0000000000038
 51
354.3146652873393
  0
ARC
  5
265
330
1F
100
AcDbEntity
  8
0
  6
Continuous
 62
     7
100
AcDbCircle
 10
823.4347304267761
 20
-542.6641113627483
 30
0.0
 40
0.4999999999999322
100
AcDbArc
 50
65.68533471275175
 51
120.0000000000038
  0
ARC
  5
266
330
1F
100
AcDbEntity
  8
0
  6
Continuous
 62
     7
100
AcDbCircle
 10
824.9170218791927
 20
-538.5834388630775
 30
0.0
 40
7.499999999995001
100
AcDbArc
 50
230.0435976904049
 51
239.316582891042
  0
ARC
  5
267
330
1F
100
AcDbEntity
  8
0
  6
Continuous
 62
     7
100
AcDbCircle
 10
824.9170218791945
 20
-538.5834388630788
 30
0.0
 40
7.499999999994689
100
AcDbArc
 50
239.3165828910251
 51
240.8483356978326
  0
ARC
  5
268
330
1F
100
AcDbEntity
  8
0
  6
Continuous
 62
     7
100
AcDbCircle
 10
824.9170218791963
 20
-538.5834388630798
 30
0.0
 40
7.499999999999377
100
AcDbArc
 50
300.6834171090505
 51
305.8843290873071
  0
ARC
  5
269
330
1F
100
AcDbEntity
  8
0
  6
Continuous
 62
     7
100
AcDbCircle
 10
824.9170218792036
 20
-538.5834388630786
 30
0.0
 40
7.4999999999966
100
AcDbArc
 50
255.1947549092386
 51
300.6834171089983
  0
ARC
  5
26A
330
1F
100
AcDbEntity
  8
0
  6
Continuous
 62
     7
100
AcDbCircle
 10
824.9170218791927
 20
-538.5834388630759
 30
0.0
 40
5.099999999995834
100
AcDbArc
 50
235.2840512708901
 51
179.9999999999706
  0
ARC
  5
26B
330
1F
100
AcDbEntity
  8
0
  6
Continuous
 62
     7
100
AcDbCircle
 10
837.0825864921429
 20
-606.3835129280759
 30
0.0
 40
2.5
100
AcDbArc
 50
270.0
 51
349.6409475119165
  0
ARC
  5
26C
330
1F
100
AcDbEntity
  8
0
  6
Continuous
 62
     7
100
AcDbCircle
 10
819.617021879198
 20
-519.8834388630719
 30
0.0
 40
3.499999999999091
100
AcDbArc
 50
180.0
 51
301.0482219934941
  0
ARC
  5
26D
330
1F
100
AcDbEntity
  8
0
  6
Continuous
 62
     7
100
AcDbCircle
 10
820.117021879198
 20
-517.583438863079
 30
0.0
 40
3.999999999998977
100
AcDbArc
 50
89.99999999997394
 51
180.0000000000147
  0
ARC
  5
26E
330
1F
100
AcDbEntity
  8
0
  6
Continuous
 62
     7
100
AcDbCircle
 10
782.2170218791938
 20
-519.8834388630785
 30
0.0
 40
3.499999999999612
100
AcDbArc
 50
238.9517780065069
 51
0.0
  0
ARC
  5
26F
330
1F
100
AcDbEntity
  8
0
  6
Continuous
 62
     7
100
AcDbCircle
 10
781.7170218791865
 20
-517.5834388630789
 30
0.0
 40
4.000000000006366
100
AcDbArc
 50
0.00000000007817
 51
89.99999999992183
  0
ARC
  5
270
330
1F
100
AcDbEntity
  8
0
  6
Continuous
 62
     7
100
AcDbCircle
 10
778.9170218791909
 20
-523.9758988630796
 30
0.0
 40
4.899999999999201
100
AcDbArc
 50
56.18192589853005
 51
136.1676606092128
  0
ARC
  5
271
330
1F
100
AcDbEntity
  8
0
  6
Continuous
 62
     7
100
AcDbCircle
 10
822.9170218792009
 20
-523.9758988630732
 30
0.0
 40
4.900000000000315
100
AcDbArc
 50
43.83233939078075
 51
123.8180741014692
  0
ARC
  5
272
330
1F
100
AcDbEntity
  8
0
  6
Continuous
 62
     7
100
AcDbCircle
 10
778.9170218791945
 20
-524.7834388630778
 30
0.0
 40
2.399999999998872
100
AcDbArc
 50
58.95177800656257
 51
160.0000000000199
  0
ARC
  5
273
330
1F
100
AcDbEntity
  8
0
  6
Continuous
 62
     7
100
AcDbCircle
 10
822.9170218791982
 20
-524.7834388630723
 30
0.0
 40
2.399999999999634
100
AcDbArc
 50
20.00000000001303
 51
121.0482219934588
  0
ARC
  5
274
330
1F
100
AcDbEntity
  8
0
  6
Continuous
 62
     7
100
AcDbCircle
 10
825.6321977227884
 20
-529.6118992230369
 30
0.0
 40
1.500000000000203
100
AcDbArc
 50
265.4422438855304
 51
20.00000000002414
  0
ARC
  5
275
330
1F
100
AcDbEntity
  8
0
  6
Continuous
 62
     7
100
AcDbCircle
 10
825.6531525683125
 20
-540.8504353043776
 30
0.0
 40
9.744287412308813
100
AcDbArc
 50
90.82410616547797
 51
125.1548104113023
  0
ARC
  5
276
330
1F
100
AcDbEntity
  8
0
  6
Continuous
 62
     7
100
AcDbCircle
 10
782.2065439970805
 20
-519.0654209809587
 30
0.0
 40
1.010477882108415
100
AcDbArc
 50
236.1819258985487
 51
0.00000000000645
  0
ARC
  5
277
330
1F
100
AcDbEntity
  8
0
  6
Continuous
 62
     7
100
AcDbCircle
 10
781.7170218791902
 20
-517.583438863081
 30
0.0
 40
1.5
100
AcDbArc
 50
0.00000000000434
 51
90.0
  0
ARC
  5
278
330
1F
100
AcDbEntity
  8
0
  6
Continuous
 62
     7
100
AcDbCircle
 10
820.1170218792025
 20
-517.5834388630748
 30
0.0
 40
1.5
100
AcDbArc
 50
90.0
 51
179.9999999999913
  0
ARC
  5
279
330
1F
100
AcDbEntity
  8
0
  6
Continuous
 62
     7
100
AcDbCircle
 10
819.6274997613103
 20
-519.0654209809524
 30
0.0
 40
1.010477882107807
100
AcDbArc
 50
179.9999999999871
 51
303.8180741014978
  0
ARC
  5
27A
330
1F
100
AcDbEntity
  8
0
  6
Continuous
 62
     7
100
AcDbCircle
 10
840.2094816404764
 20
-523.7834391017957
 30
0.0
 40
7.707540238711974
100
AcDbArc
 50
223.8323393907725
 51
92.53454971156413
  0
ARC
  5
27B
330
1F
100
AcDbEntity
  8
0
  6
Continuous
 62
     7
100
AcDbCircle
 10
748.9170218791945
 20
-520.5834388630838
 30
0.0
 40
6.900000000000125
100
AcDbArc
 50
106.0000000000113
 51
114.000000000004
  0
ARC
  5
27C
330
1F
100
AcDbEntity
  8
0
  6
Continuous
 62
     7
100
AcDbCircle
 10
748.9170218791945
 20
-520.5834388630838
 30
0.0
 40
7.000000000000078
100
AcDbArc
 50
98.00000000001009
 51
106.0000000000035
  0
ARC
  5
27D
330
1F
100
AcDbEntity
  8
0
  6
Continuous
 62
     7
100
AcDbCircle
 10
748.9170218791945
 20
-520.5834388630838
 30
0.0
 40
6.899999999999977
100
AcDbArc
 50
90.0
 51
98.00000000000962
  0
ARC
  5
27E
330
1F
100
AcDbEntity
  8
0
  6
Continuous
 62
     7
100
AcDbCircle
 10
748.9170218791945
 20
-520.5834388630838
 30
0.0
 40
7.000000000000159
100
AcDbArc
 50
114.0000000000081
 51
121.9999999999987
  0
ARC
  5
27F
330
1F
100
AcDbEntity
  8
0
  6
Continuous
 62
     7
100
AcDbCircle
 10
750.4170218792
 20
-524.0834388630848
 30
0.0
 40
1.0
100
AcDbArc
 50
270.0
 51
0.00000000001303
  0
ARC
  5
280
330
1F
100
AcDbEntity
  8
0
  6
Continuous
 62
     7
100
AcDbCircle
 10
750.4170218791991
 20
-517.0834388630846
 30
0.0
 40
1.0
100
AcDbArc
 50
0.0
 51
90.0
  0
ARC
  5
281
330
1F
100
AcDbEntity
  8
0
  6
Continuous
 62
     7
100
AcDbCircle
 10
748.9170218791945
 20
-520.5834388630838
 30
0.0
 40
6.899999999999981
100
AcDbArc
 50
234.0000000000063
 51
242.0000000000111
  0
ARC
  5
282
330
1F
100
AcDbEntity
  8
0
  6
Continuous
 62
     7
100
AcDbCircle
 10
748.9170218791945
 20
-520.5834388630838
 30
0.0
 40
6.899999999999823
100
AcDbArc
 50
122.0000000000037
 51
130.000000000004
  0
ARC
  5
283
330
1F
100
AcDbEntity
  8
0
  6
Continuous
 62
     7
100
AcDbCircle
 10
748.9170218791945
 20
-520.5834388630838
 30
0.0
 40
6.999999999999576
100
AcDbArc
 50
226.0000000000088
 51
234.0000000000067
  0
ARC
  5
284
330
1F
100
AcDbEntity
  8
0
  6
Continuous
 62
     7
100
AcDbCircle
 10
748.9170218791909
 20
-520.5834388630848
 30
0.0
 40
4.5
100
AcDbArc
 50
90.0
 51
270.0000000000116
  0
ARC
  5
285
330
1F
100
AcDbEntity
  8
0
  6
Continuous
 62
     7
100
AcDbCircle
 10
748.9170218791945
 20
-520.5834388630838
 30
0.0
 40
6.899999999999348
100
AcDbArc
 50
218.0000000000118
 51
226.000000000003
  0
ARC
  5
286
330
1F
100
AcDbEntity
  8
0
  6
Continuous
 62
     7
100
AcDbCircle
 10
748.9170218791945
 20
-520.5834388630838
 30
0.0
 40
7.000000000000298
100
AcDbArc
 50
130.0000000000093
 51
138.0000000000046
  0
ARC
  5
287
330
1F
100
AcDbEntity
  8
0
  6
Continuous
 62
     7
100
AcDbCircle
 10
748.9170218791945
 20
-520.5834388630838
 30
0.0
 40
6.900000000000084
100
AcDbArc
 50
138.0000000000068
 51
146.0000000000071
  0
ARC
  5
288
330
1F
100
AcDbEntity
  8
0
  6
Continuous
 62
     7
100
AcDbCircle
 10
748.9170218791945
 20
-520.5834388630838
 30
0.0
 40
6.999999999999678
100
AcDbArc
 50
210.0000000000069
 51
218.0000000000081
  0
ARC
  5
289
330
1F
100
AcDbEntity
  8
0
  6
Continuous
 62
     7
100
AcDbCircle
 10
748.9170218793746
 20
-520.5834388633965
 30
0.0
 40
6.899999999999666
100
AcDbArc
 50
209.59184579104
 51
209.999999997015
  0
ARC
  5
28A
330
1F
100
AcDbEntity
  8
0
  6
Continuous
 62
     7
100
AcDbCircle
 10
748.91702187918
 20
-520.5834388630495
 30
0.0
 40
6.899999999999383
100
AcDbArc
 50
202.0000000003148
 51
203.4876084932893
  0
ARC
  5
28B
330
1F
100
AcDbEntity
  8
0
  6
Continuous
 62
     7
100
AcDbCircle
 10
748.9170218791882
 20
-520.5834388630701
 30
0.0
 40
6.899999999997924
100
AcDbArc
 50
203.4876084931055
 51
209.5918457941614
  0
ARC
  5
28C
330
1F
100
AcDbEntity
  8
0
  6
Continuous
 62
     7
100
AcDbCircle
 10
748.9170218791945
 20
-520.5834388630838
 30
0.0
 40
6.999999999999537
100
AcDbArc
 50
146.0000000000029
 51
154.000000000007
  0
ARC
  5
28D
330
1F
100
AcDbEntity
  8
0
  6
Continuous
 62
     7
100
AcDbCircle
 10
748.91702187918
 20
-520.5834388631162
 30
0.0
 40
6.900000000000666
100
AcDbArc
 50
153.9999999997088
 51
155.6038347169419
  0
ARC
  5
28E
330
1F
100
AcDbEntity
  8
0
  6
Continuous
 62
     7
100
AcDbCircle
 10
748.9170218791982
 20
-520.5834388630755
 30
0.0
 40
6.900000000000995
100
AcDbArc
 50
155.603834717312
 51
162.0000000000782
  0
ARC
  5
28F
330
1F
100
AcDbEntity
  8
0
  6
Continuous
 62
     7
100
AcDbCircle
 10
748.9170218791945
 20
-520.5834388630838
 30
0.0
 40
6.999999999999531
100
AcDbArc
 50
194.0000000000067
 51
202.0000000000068
  0
ARC
  5
290
330
1F
100
AcDbEntity
  8
0
  6
Continuous
 62
     7
100
AcDbCircle
 10
748.9170218791945
 20
-520.5834388630838
 30
0.0
 40
6.899999999999018
100
AcDbArc
 50
186.0000000000074
 51
194.0000000000068
  0
ARC
  5
291
330
1F
100
AcDbEntity
  8
0
  6
Continuous
 62
     7
100
AcDbCircle
 10
748.9170218791927
 20
-520.5834388630931
 30
0.0
 40
6.899999999999657
100
AcDbArc
 50
169.9999999999267
 51
172.0863129292052
  0
ARC
  5
292
330
1F
100
AcDbEntity
  8
0
  6
Continuous
 62
     7
100
AcDbCircle
 10
748.9170218791945
 20
-520.5834388630807
 30
0.0
 40
6.900000000000476
100
AcDbArc
 50
172.0863129293093
 51
178.0000000000308
  0
ARC
  5
293
330
1F
100
AcDbEntity
  8
0
  6
Continuous
 62
     7
100
AcDbCircle
 10
748.9170218791945
 20
-520.5834388630838
 30
0.0
 40
6.999999999999271
100
AcDbArc
 50
162.0000000000041
 51
170.0000000000067
  0
ARC
  5
294
330
1F
100
AcDbEntity
  8
0
  6
Continuous
 62
     7
100
AcDbCircle
 10
748.9170218791945
 20
-520.5834388630838
 30
0.0
 40
6.999999999999806
100
AcDbArc
 50
178.0000000000065
 51
186.0000000000069
  0
ARC
  5
295
330
1F
100
AcDbEntity
  8
0
  6
Continuous
 62
     7
100
AcDbCircle
 10
851.4170218791927
 20
-517.0834388630782
 30
0.0
 40
1.0
100
AcDbArc
 50
90.0
 51
180.0
  0
ARC
  5
296
330
1F
100
AcDbEntity
  8
0
  6
Continuous
 62
     7
100
AcDbCircle
 10
851.4170218791918
 20
-524.0834388630784
 30
0.0
 40
1.0
100
AcDbArc
 50
179.999999999987
 51
270.0
  0
ARC
  5
297
330
1F
100
AcDbEntity
  8
0
  6
Continuous
 62
     7
100
AcDbCircle
 10
824.9168845253183
 20
-539.3834388630748
 30
0.0
 40
2.400137355021558
100
AcDbArc
 50
123.3304550961584
 51
359.9982319294231
  0
ARC
  5
298
330
1F
100
AcDbEntity
  8
0
  6
Continuous
 62
     7
100
AcDbCircle
 10
824.9170218791963
 20
-539.3835129280806
 30
0.0
 40
2.399999999999636
100
AcDbArc
 50
0.0
 51
56.71358366172327
  0
ARC
  5
299
330
1F
100
AcDbEntity
  8
0
  6
Continuous
 62
     7
100
AcDbCircle
 10
776.9170218791963
 20
-539.3835129280806
 30
0.0
 40
2.399999999999636
100
AcDbArc
 50
0.0
 51
56.71358366172327
  0
ARC
  5
29A
330
1F
100
AcDbEntity
  8
0
  6
Continuous
 62
     7
100
AcDbCircle
 10
776.9168845253183
 20
-539.3834388630748
 30
0.0
 40
2.400137355020558
100
AcDbArc
 50
123.3304550961222
 51
359.9982319294231
  0
ARC
  5
29B
330
1F
100
AcDbEntity
  8
0
  6
Continuous
 62
     7
100
AcDbCircle
 10
776.2018460356052
 20
-529.6118992230435
 30
0.0
 40
1.500000000000747
100
AcDbArc
 50
160.0000000000115
 51
274.5577561143656
  0
ARC
  5
29C
330
1F
100
AcDbEntity
  8
0
  6
Continuous
 62
     7
100
AcDbCircle
 10
761.6245621179163
 20
-523.7834391017979
 30
0.0
 40
7.707540238715705
100
AcDbArc
 50
92.53454971158367
 51
316.1676606092108
  0
ARC
  5
29D
330
1F
100
AcDbEntity
  8
0
  6
Continuous
 62
     7
100
AcDbCircle
 10
748.9170218791945
 20
-520.5834388630838
 30
0.0
 40
6.899999999993448
100
AcDbArc
 50
266.0000000000022
 51
270.0
  0
ARC
  5
29E
330
1F
100
AcDbEntity
  8
0
  6
Continuous
 62
     7
100
AcDbCircle
 10
748.9170218791481
 20
-520.5834388630772
 30
0.0
 40
6.999999999996768
100
AcDbArc
 50
258.0000000003891
 51
266.0000000003805
  0
ARC
  5
29F
330
1F
100
AcDbEntity
  8
0
  6
Continuous
 62
     7
100
AcDbCircle
 10
748.9170218791945
 20
-520.5834388630838
 30
0.0
 40
6.899999999999875
100
AcDbArc
 50
250.00000000001
 51
258.0000000000034
  0
ARC
  5
2A0
330
1F
100
AcDbEntity
  8
0
  6
Continuous
 62
     7
100
AcDbCircle
 10
748.9170218791945
 20
-520.5834388630838
 30
0.0
 40
6.999999999999929
100
AcDbArc
 50
242.0000000000064
 51
250.0000000000098
  0
ARC
  5
2A1
330
1F
100
AcDbEntity
  8
0
  6
Continuous
 62
     7
100
AcDbCircle
 10
760.1670218791963
 20
-555.8396318462917
 30
0.0
 40
6.0
100
AcDbArc
 50
180.0000000000337
 51
190.3590524880815
  0
ARC
  5
2A2
330
1F
100
AcDbEntity
  8
0
  6
Continuous
 62
     7
100
AcDbCircle
 10
764.7514572662507
 20
-606.3835129280793
 30
0.0
 40
2.499999999999807
100
AcDbArc
 50
190.359052488004
 51
270.0
  0
ARC
  5
2A3
330
1F
100
AcDbEntity
  8
0
  6
Continuous
 62
     7
100
AcDbCircle
 10
852.9170218791963
 20
-520.58343886308
 30
0.0
 40
7.000000000003154
100
AcDbArc
 50
42.0000000000034
 51
50.00000000000059
  0
ARC
  5
2A4
330
1F
100
AcDbEntity
  8
0
  6
Continuous
 62
     7
100
AcDbCircle
 10
852.9170218791963
 20
-520.58343886308
 30
0.0
 40
6.900000000002516
100
AcDbArc
 50
50.00000000000538
 51
57.99999999999601
  0
ARC
  5
2A5
330
1F
100
AcDbEntity
  8
0
  6
Continuous
 62
     7
100
AcDbCircle
 10
852.9170218792009
 20
-520.5834388630784
 30
0.0
 40
6.999999999996886
100
AcDbArc
 50
305.9999999999746
 51
313.999999999981
  0
ARC
  5
2A6
330
1F
100
AcDbEntity
  8
0
  6
Continuous
 62
     7
100
AcDbCircle
 10
852.9170218792009
 20
-520.5834388630784
 30
0.0
 40
6.899999999996294
100
AcDbArc
 50
313.9999999999771
 51
321.9999999999871
  0
ARC
  5
2A7
330
1F
100
AcDbEntity
  8
0
  6
Continuous
 62
     7
100
AcDbCircle
 10
852.9170218792009
 20
-520.5834388630784
 30
0.0
 40
6.899999999997273
100
AcDbArc
 50
297.9999999999737
 51
305.9999999999815
  0
ARC
  5
2A8
330
1F
100
AcDbEntity
  8
0
  6
Continuous
 62
     7
100
AcDbCircle
 10
852.9170218791982
 20
-520.583438863081
 30
0.0
 40
6.999999999996182
100
AcDbArc
 50
290.000000000001
 51
298.0000000000084
  0
ARC
  5
2A9
330
1F
100
AcDbEntity
  8
0
  6
Continuous
 62
     7
100
AcDbCircle
 10
852.9170218791982
 20
-520.583438863081
 30
0.0
 40
6.899999999996049
100
AcDbArc
 50
281.9999999999885
 51
290.000000000001
  0
ARC
  5
2AA
330
1F
100
AcDbEntity
  8
0
  6
Continuous
 62
     7
100
AcDbCircle
 10
852.9170218791509
 20
-520.5834388630875
 30
0.0
 40
6.9999999999996
100
AcDbArc
 50
274.0000000003791
 51
282.0000000003897
  0
ARC
  5
2AB
330
1F
100
AcDbEntity
  8
0
  6
Continuous
 62
     7
100
AcDbCircle
 10
852.9170218791982
 20
-520.583438863081
 30
0.0
 40
6.900000000002819
100
AcDbArc
 50
269.9999999999849
 51
273.9999999999849
  0
ARC
  5
2AC
330
1F
100
AcDbEntity
  8
0
  6
Continuous
 62
     7
100
AcDbCircle
 10
841.6670218791963
 20
-555.8396318462917
 30
0.0
 40
5.999999999999756
100
AcDbArc
 50
349.6409475119169
 51
0.0
  0
ARC
  5
2AD
330
1F
100
AcDbEntity
  8
0
  6
Continuous
 62
     7
100
AcDbCircle
 10
852.9170218792009
 20
-520.5834388630784
 30
0.0
 40
6.999999999996105
100
AcDbArc
 50
321.9999999999823
 51
329.9999999999892
  0
ARC
  5
2AE
330
1F
100
AcDbEntity
  8
0
  6
Continuous
 62
     7
100
AcDbCircle
 10
852.9170218791945
 20
-520.5834388630891
 30
0.0
 40
6.899999999999215
100
AcDbArc
 50
330.4081542059843
 51
335.603834717314
  0
ARC
  5
2AF
330
1F
100
AcDbEntity
  8
0
  6
Continuous
 62
     7
100
AcDbCircle
 10
852.917021879381
 20
-520.5834388627609
 30
0.0
 40
6.899999999999666
100
AcDbArc
 50
329.9999999969578
 51
330.4081542028498
  0
ARC
  5
2B0
330
1F
100
AcDbEntity
  8
0
  6
Continuous
 62
     7
100
AcDbCircle
 10
852.9170218791854
 20
-520.5834388631108
 30
0.0
 40
6.899999999999199
100
AcDbArc
 50
335.6038347175095
 51
338.0000000002898
  0
ARC
  5
2B1
330
1F
100
AcDbEntity
  8
0
  6
Continuous
 62
     7
100
AcDbCircle
 10
852.9170218792009
 20
-520.5834388630784
 30
0.0
 40
6.999999999996907
100
AcDbArc
 50
337.9999999999935
 51
345.9999999999978
  0
ARC
  5
2B2
330
1F
100
AcDbEntity
  8
0
  6
Continuous
 62
     7
100
AcDbCircle
 10
852.9170218792
 20
-520.583438863072
 30
0.0
 40
6.899999999999201
100
AcDbArc
 50
345.9999999999474
 51
352.0863129292098
  0
ARC
  5
2B3
330
1F
100
AcDbEntity
  8
0
  6
Continuous
 62
     7
100
AcDbCircle
 10
852.9170218791963
 20
-520.5834388630941
 30
0.0
 40
6.899999999999952
100
AcDbArc
 50
352.0863129293954
 51
354.0000000001339
  0
ARC
  5
2B4
330
1F
100
AcDbEntity
  8
0
  6
Continuous
 62
     7
100
AcDbCircle
 10
852.9170218791982
 20
-520.5834388630773
 30
0.0
 40
6.999999999999436
100
AcDbArc
 50
353.999999999994
 51
1.99999999999465
  0
ARC
  5
2B5
330
1F
100
AcDbEntity
  8
0
  6
Continuous
 62
     7
100
AcDbCircle
 10
852.9170218791982
 20
-520.5834388630773
 30
0.0
 40
6.899999999998915
100
AcDbArc
 50
1.99999999999395
 51
9.9999999999954
  0
ARC
  5
2B6
330
1F
100
AcDbEntity
  8
0
  6
Continuous
 62
     7
100
AcDbCircle
 10
852.9170218791982
 20
-520.5834388630773
 30
0.0
 40
6.999999999999742
100
AcDbArc
 50
9.99999999999419
 51
17.99999999999681
  0
ARC
  5
2B7
330
1F
100
AcDbEntity
  8
0
  6
Continuous
 62
     7
100
AcDbCircle
 10
852.9170218792036
 20
-520.583438863094
 30
0.0
 40
6.900000000000012
100
AcDbArc
 50
18.00000000014029
 51
23.4876084930978
  0
ARC
  5
2B8
330
1F
100
AcDbEntity
  8
0
  6
Continuous
 62
     7
100
AcDbCircle
 10
852.9170218791809
 20
-520.5834388630443
 30
0.0
 40
6.900000000000554
100
AcDbArc
 50
23.48760849264419
 51
25.99999999968745
  0
ARC
  5
2B9
330
1F
100
AcDbEntity
  8
0
  6
Continuous
 62
     7
100
AcDbCircle
 10
852.9170218791963
 20
-520.5834388630778
 30
0.0
 40
7.000000000001287
100
AcDbArc
 50
25.9999999999948
 51
32.39236548579628
  0
ARC
  5
2BA
330
1F
100
AcDbEntity
  8
0
  6
Continuous
 62
     7
100
AcDbCircle
 10
852.9170218791963
 20
-520.58343886308
 30
0.0
 40
7.000000000002303
100
AcDbArc
 50
32.3923654858112
 51
34.00000000000728
  0
ARC
  5
2BB
330
1F
100
AcDbEntity
  8
0
  6
Continuous
 62
     7
100
AcDbCircle
 10
852.9170218792009
 20
-520.5834388630784
 30
0.0
 40
4.5
100
AcDbArc
 50
269.9999999999884
 51
90.0
  0
ARC
  5
2BC
330
1F
100
AcDbEntity
  8
0
  6
Continuous
 62
     7
100
AcDbCircle
 10
852.9170218791963
 20
-520.5834388630778
 30
0.0
 40
6.900000000001907
100
AcDbArc
 50
33.99999999998914
 51
41.99999999999169
  0
ARC
  5
2BD
330
1F
100
AcDbEntity
  8
0
  6
Continuous
 62
     7
100
AcDbCircle
 10
852.9170218791963
 20
-520.58343886308
 30
0.0
 40
7.000000000003362
100
AcDbArc
 50
57.99999999999421
 51
65.99999999999493
  0
ARC
  5
2BE
330
1F
100
AcDbEntity
  8
0
  6
Continuous
 62
     7
100
AcDbCircle
 10
852.9170218791963
 20
-520.58343886308
 30
0.0
 40
6.900000000002918
100
AcDbArc
 50
65.99999999999832
 51
73.9999999999955
  0
ARC
  5
2BF
330
1F
100
AcDbEntity
  8
0
  6
Continuous
 62
     7
100
AcDbCircle
 10
852.9170218791982
 20
-520.583438863081
 30
0.0
 40
6.900000000003804
100
AcDbArc
 50
82.00000000000233
 51
90.0
  0
ARC
  5
2C0
330
1F
100
AcDbEntity
  8
0
  6
Continuous
 62
     7
100
AcDbCircle
 10
852.9170218791963
 20
-520.58343886308
 30
0.0
 40
7.000000000003224
100
AcDbArc
 50
73.99999999998859
 51
81.9999999999859
  0
ARC
  5
2C1
330
1F
100
AcDbEntity
  8
0
  6
Continuous
 62
     7
100
AcDbCircle
 10
776.9170218791963
 20
-538.5834388630798
 30
0.0
 40
7.499999999999917
100
AcDbArc
 50
255.1947549091088
 51
49.46332730888449
  0
ARC
  5
2C2
330
1F
100
AcDbEntity
  8
1
  6
DASHED
 62
     2
100
AcDbCircle
 10
776.9170218791963
 20
-538.5834388630798
 30
0.0
 40
40.28663395418599
100
AcDbArc
 50
131.8697655689415
 51
180.0000000000003
  0
ARC
  5
2C3
330
1F
100
AcDbEntity
  8
1
  6
DASHED
 62
     2
100
AcDbCircle
 10
824.9170218791927
 20
-538.58343886308
 30
0.0
 40
40.28663395419187
100
AcDbArc
 50
0.0
 51
48.13023443104967
  0
CIRCLE
  5
2C4
330
1F
100
AcDbEntity
  8
0
  6
Continuous
 62
     7
100
AcDbCircle
 10
768.4170218791927
 20
-535.3835129280831
 30
0.0
 40
3.0
  0
CIRCLE
  5
2C5
330
1F
100
AcDbEntity
  8
0
  6
Continuous
 62
     7
100
AcDbCircle
 10
833.4170218792
 20
-535.3835129280767
 30
0.0
 40
3.0
  0
SPLINE
  5
2C6
330
1F
100
AcDbEntity
  8
0
  6
Continuous
 62
     7
100
AcDbSpline
210
0.0
220
0.0
230
1.0
 70
     8
 71
     3
 72
     9
 73
     5
 74
     3
 42
0.000000001
 43
0.0000000001
 44
0.00000001
 40
0.0
 40
0.0
 40
0.0
 40
0.0
 40
1.652027233107207
 40
3.385012758544272
 40
3.385012758544272
 40
3.385012758544272
 40
3.385012758544272
 10
758.448623664471
 20
-570.8835129280751
 30
0.0
 10
758.927246188794
 20
-570.59457063402
 30
0.0
 10
759.9079463438793
 20
-570.0025263248406
 30
0.0
 10
761.0518021945271
 20
-569.9238115857709
 30
0.0
 10
761.6374087436083
 20
-569.8835129280751
 30
0.0
 11
758.448623664471
 21
-570.8835129280751
 31
0.0
 11
759.9233524252965
 21
-570.1389532822577
 31
0.0
 11
761.6374087436083
 21
-569.8835129280751
 31
0.0
  0
SPLINE
  5
2C7
330
1F
100
AcDbEntity
  8
0
  6
Continuous
 62
     7
100
AcDbSpline
210
0.0
220
0.0
230
1.0
 70
     8
 71
     3
 72
     9
 73
     5
 74
     3
 42
0.000000001
 43
0.0000000001
 44
0.00000001
 40
0.0
 40
0.0
 40
0.0
 40
0.0
 40
1.8254041694343
 40
3.724389486465976
 40
3.724389486465976
 40
3.724389486465976
 40
3.724389486465976
 10
767.6696668081235
 20
-602.8835129280751
 30
0.0
 10
767.0567135643843
 20
-602.8359641467415
 30
0.0
 10
765.8060992359838
 20
-602.7389498966909
 30
0.0
 10
764.686267970742
 20
-602.172389685387
 30
0.0
 10
764.115290331138
 20
-601.8835129280752
 30
0.0
 11
767.6696668081235
 21
-602.8835129280751
 31
0.0
 11
765.8622236936601
 21
-602.6280725738926
 31
0.0
 11
764.115290331138
 21
-601.8835129280752
 31
0.0
  0
SPLINE
  5
2C8
330
1F
100
AcDbEntity
  8
0
  6
Continuous
 62
     7
100
AcDbSpline
210
0.0
220
0.0
230
1.0
 70
     8
 71
     3
 72
     9
 73
     5
 74
     3
 42
0.000000001
 43
0.0000000001
 44
0.00000001
 40
0.0
 40
0.0
 40
0.0
 40
0.0
 40
1.732985525437065
 40
3.385012758544272
 40
3.385012758544272
 40
3.385012758544272
 40
3.385012758544272
 10
840.1966350147844
 20
-569.8835129280751
 30
0.0
 10
840.7822415638653
 20
-569.9238115857709
 30
0.0
 10
841.9260974145135
 20
-570.0025263248403
 30
0.0
 10
842.9067975695987
 20
-570.59457063402
 30
0.0
 10
843.3854200939217
 20
-570.8835129280751
 30
0.0
 11
840.1966350147844
 21
-569.8835129280751
 31
0.0
 11
841.9106913330962
 21
-570.1389532822577
 31
0.0
 11
843.3854200939217
 21
-570.8835129280751
 31
0.0
  0
SPLINE
  5
2C9
330
1F
100
AcDbEntity
  8
0
  6
Continuous
 62
     7
100
AcDbSpline
210
0.0
220
0.0
230
1.0
 70
     8
 71
     3
 72
     9
 73
     5
 74
     3
 42
0.000000001
 43
0.0000000001
 44
0.00000001
 40
0.0
 40
0.0
 40
0.0
 40
0.0
 40
1.898985317032618
 40
3.724389486468606
 40
3.724389486468606
 40
3.724389486468606
 40
3.724389486468606
 10
837.7187534272556
 20
-601.8835129280752
 30
0.0
 10
837.1477757876513
 20
-602.1723896853872
 30
0.0
 10
836.0279445224083
 20
-602.7389498966909
 30
0.0
 10
834.7773301940069
 20
-602.8359641467415
 30
0.0
 10
834.1643769502674
 20
-602.8835129280751
 30
0.0
 11
837.7187534272556
 21
-601.8835129280752
 31
0.0
 11
835.9718200647325
 21
-602.6280725738926
 31
0.0
 11
834.1643769502674
 21
-602.8835129280751
 31
0.0
  0
ARC
  5
2CA
330
1F
100
AcDbEntity
  8
1
  6
Continuous
 62
     7
100
AcDbCircle
 10
901.8714786171074
 20
-533.6935619931074
 30
0.0
 40
3.000000000000242
100
AcDbArc
 50
112.7960044979434
 51
180.0000000000065
  0
ARC
  5
2CB
330
1F
100
AcDbEntity
  8
1
  6
Continuous
 62
     7
100
AcDbCircle
 10
942.8714786171074
 20
-533.6935619931028
 30
0.0
 40
2.999999999999923
100
AcDbArc
 50
71.25513282299679
 51
90.0
  0
ARC
  5
2CC
330
1F
100
AcDbEntity
  8
1
  6
Continuous
 62
     7
100
AcDbCircle
 10
942.8714786171074
 20
-533.6935619931028
 30
0.0
 40
3.0
100
AcDbArc
 50
0.00000000001086
 51
71.25513282299679
  0
ARC
  5
2CD
330
1F
100
AcDbEntity
  8
1
  6
Continuous
 62
     7
100
AcDbCircle
 10
901.8714786171074
 20
-533.6935619931074
 30
0.0
 40
3.0
100
AcDbArc
 50
90.0
 51
112.7960044979434
  0
MTEXT
  5
2CE
330
1F
100
AcDbEntity
  8
1
 62
     7
100
AcDbMText
 10
807.5280241935487
 20
-662.8395621921482
 30
0.0
 40
3.0
 41
0.0
 71
     4
 72
     1
  1
21/01/14
  7
CONVERTER_11
 73
     1
 44
1.32052821128451
  0
MTEXT
  5
2CF
330
1F
100
AcDbEntity
  8
1
 62
     7
100
AcDbMText
 10
807.5280241935487
 20
-670.3502016129041
 30
0.0
 40
3.0
 41
0.0
 71
     4
 72
     1
  1
Radice
  7
CONVERTER_11
 73
     1
 44
1.32052821128451
  0
MTEXT
  5
2D0
330
1F
100
AcDbEntity
  8
1
 62
     7
100
AcDbMText
 10
943.6043248822914
 20
-669.039562192148
 30
0.0
 40
4.5
 41
0.0
 71
     5
 72
     1
  1
1:1
  7
CONVERTER_11
 73
     1
 44
1.32052821128451
  0
MTEXT
  5
2D2
330
1F
100
AcDbEntity
  8
1
 62
     7
100
AcDbMText
 10
831.2043248822913
 20
-666.6002016129041
 30
0.0
 40
4.5
 41
0.0
 71
     4
 72
     1
  1
MFVN 16 G32\PHood with levers, top entry M32, high construction - LS TYPE 
  7
CONVERTER_12
 73
     1
 44
0.90036014405762
  0
DIMENSION
  5
2DE
330
1F
100
AcDbEntity
  8
1
100
AcDbDimension
  2
*D3
 10
784.9170218791963
 20
-618.8835129280756
 30
0.0
 11
800.9170218791963
 21
-615.3835129280756
 31
0.0
 70
    32
  1
<>
 71
     5
 42
-1.0
 53
0.00013888888889
  3
ME10_DIM_10
100
AcDbAlignedDimension
 13
816.9170218791963
 23
-608.8835129280756
 33
0.0
 14
784.9170218791963
 24
-608.8835129280756
 34
0.0
100
AcDbRotatedDimension
  0
DIMENSION
  5
2E9
330
1F
100
AcDbEntity
  8
1
100
AcDbDimension
  2
*D4
 10
754.1670218791963
 20
-631.7835129280755
 30
0.0
 11
800.9170218791963
 21
-628.1335129280756
 31
0.0
 70
    32
  1
<>
 71
     5
 42
-1.0
 53
0.00013888888889
  3
ME10_DIM_11
100
AcDbAlignedDimension
 13
847.6670218791963
 23
-554.1335129280773
 33
0.0
 14
754.1670218791963
 24
-554.1335129280775
 34
0.0
100
AcDbRotatedDimension
  0
DIMENSION
  5
2F4
330
1F
100
AcDbEntity
  8
1
100
AcDbDimension
  2
*D5
 10
900.7680220367099
 20
-631.7835129280755
 30
0.0
 11
922.2680220367099
 21
-628.2835129280755
 31
0.0
 70
    32
  1
<>
 71
     5
 42
-1.0
 53
0.00013888888889
  3
ME10_DIM_12
100
AcDbAlignedDimension
 13
943.7680220367099
 23
-606.3835129280756
 33
0.0
 14
900.7680220367099
 24
-606.3835129280806
 34
0.0
100
AcDbRotatedDimension
  0
DIMENSION
  5
2FF
330
1F
100
AcDbEntity
  8
1
100
AcDbDimension
  2
*D6
 10
725.9190955953321
 20
-608.8835129280793
 30
0.0
 11
722.269095595332
 21
-568.1343876174046
 31
0.0
 70
    32
  1
<>
 71
     5
 42
-1.0
 53
90.0
  3
ME10_DIM_13
100
AcDbAlignedDimension
 13
747.4712496749265
 23
-527.3852623067299
 33
0.0
 14
764.7514572662507
 24
-608.8835129280793
 34
0.0
 50
90.0
100
AcDbRotatedDimension
  0
DIMENSION
  5
30A
330
1F
100
AcDbEntity
  8
1
100
AcDbDimension
  2
*D7
 10
893.3714786171056
 20
-503.5834388630769
 30
0.0
 11
922.3714786171056
 21
-500.0834388630769
 31
0.0
 70
    32
  1
<>
 71
     5
 42
-1.0
 53
0.00013888888889
  3
ME10_DIM_14
100
AcDbAlignedDimension
 13
951.3714786171056
 23
-513.5834388630714
 33
0.0
 14
893.3714786171056
 24
-513.5834388630782
 34
0.0
100
AcDbRotatedDimension
  0
DIMENSION
  5
315
330
1F
100
AcDbEntity
  8
1
100
AcDbDimension
  2
*D8
 10
865.2036558333846
 20
-499.933706940678
 30
0.0
 11
800.9170218791974
 21
-496.433706940678
 31
0.0
 70
    32
  1
130
 71
     5
 42
-1.0
 53
0.00013888888889
  3
ME10_DIM_15
100
AcDbAlignedDimension
 13
736.6303879250102
 23
-538.58343886308
 33
0.0
 14
865.2036558333846
 24
-538.58343886308
 34
0.0
100
AcDbRotatedDimension
  0
ENDSEC
  0
SECTION
  2
OBJECTS
  0
DICTIONARY
  5
C
330
0
100
AcDbDictionary
281
     1
  3
ACAD_GROUP
350
D
  3
ACAD_LAYOUT
350
1A
  3
ACAD_MATERIAL
350
3B
  3
ACAD_MLEADERSTYLE
350
318
  3
ACAD_MLINESTYLE
350
17
  3
ACAD_PLOTSETTINGS
350
19
  3
ACAD_PLOTSTYLENAME
350
E
  3
ACAD_VISUALSTYLE
350
2A
  3
AcDbVariableDictionary
350
316
  0
DICTIONARY
  5
D
102
{ACAD_REACTORS
330
C
102
}
330
C
100
AcDbDictionary
281
     1
  0
DICTIONARY
  5
1A
102
{ACAD_REACTORS
330
C
102
}
330
C
100
AcDbDictionary
281
     1
  3
Layout1
350
1E
  3
Layout2
350
26
  3
Model
350
22
  0
DICTIONARY
  5
3B
102
{ACAD_REACTORS
330
C
102
}
330
C
100
AcDbDictionary
281
     1
  3
ByBlock
350
3D
  3
ByLayer
350
3C
  3
Global
350
3E
  0
DICTIONARY
  5
318
102
{ACAD_REACTORS
330
C
102
}
330
C
100
AcDbDictionary
281
     1
  0
DICTIONARY
  5
17
102
{ACAD_REACTORS
330
C
102
}
330
C
100
AcDbDictionary
281
     1
  3
Standard
350
18
  0
DICTIONARY
  5
19
102
{ACAD_REACTORS
330
C
102
}
330
C
100
AcDbDictionary
281
     1
  0
ACDBDICTIONARYWDFLT
  5
E
102
{ACAD_REACTORS
330
C
102
}
330
C
100
AcDbDictionary
281
     1
  3
Normal
350
F
100
AcDbDictionaryWithDefault
340
F
  0
DICTIONARY
  5
2A
102
{ACAD_REACTORS
330
C
102
}
330
C
100
AcDbDictionary
281
     1
  3
2dWireframe
350
2F
  3
3D Hidden
350
31
  3
3dWireframe
350
30
  3
Basic
350
32
  3
Brighten
350
36
  3
ColorChange
350
3A
  3
Conceptual
350
34
  3
Dim
350
35
  3
Facepattern
350
39
  3
Flat
350
2B
  3
FlatWithEdges
350
2C
  3
Gouraud
350
2D
  3
GouraudWithEdges
350
2E
  3
Linepattern
350
38
  3
Realistic
350
33
  3
Thicken
350
37
  0
DICTIONARY
  5
316
102
{ACAD_REACTORS
330
C
102
}
330
C
100
AcDbDictionary
281
     1
  3
DIMASSOC
350
319
  3
HIDETEXT
350
31A
  0
LAYOUT
  5
1E
102
{ACAD_REACTORS
330
1A
102
}
330
1A
100
AcDbPlotSettings
  1

  2
none_device
  4

  6

 40
0.0
 41
0.0
 42
0.0
 43
0.0
 44
0.0
 45
0.0
 46
0.0
 47
0.0
 48
0.0
 49
0.0
140
0.0
141
0.0
142
1.0
143
1.0
 70
   688
 72
     0
 73
     0
 74
     5
  7

 75
    16
147
1.0
148
0.0
149
0.0
100
AcDbLayout
  1
Layout1
 70
     1
 71
     1
 10
0.0
 20
0.0
 11
12.0
 21
9.0
 12
0.0
 22
0.0
 32
0.0
 14
1.00000000000000E+20
 24
1.00000000000000E+20
 34
1.00000000000000E+20
 15
-1.00000000000000E+20
 25
-1.00000000000000E+20
 35
-1.00000000000000E+20
146
0.0
 13
0.0
 23
0.0
 33
0.0
 16
1.0
 26
0.0
 36
0.0
 17
0.0
 27
1.0
 37
0.0
 76
     0
330
1B
  0
LAYOUT
  5
26
102
{ACAD_REACTORS
330
1A
102
}
330
1A
100
AcDbPlotSettings
  1

  2
none_device
  4

  6

 40
0.0
 41
0.0
 42
0.0
 43
0.0
 44
0.0
 45
0.0
 46
0.0
 47
0.0
 48
0.0
 49
0.0
140
0.0
141
0.0
142
1.0
143
1.0
 70
   688
 72
     0
 73
     0
 74
     5
  7

 75
    16
147
1.0
148
0.0
149
0.0
100
AcDbLayout
  1
Layout2
 70
     1
 71
     2
 10
0.0
 20
0.0
 11
0.0
 21
0.0
 12
0.0
 22
0.0
 32
0.0
 14
0.0
 24
0.0
 34
0.0
 15
0.0
 25
0.0
 35
0.0
146
0.0
 13
0.0
 23
0.0
 33
0.0
 16
1.0
 26
0.0
 36
0.0
 17
0.0
 27
1.0
 37
0.0
 76
     0
330
23
  0
LAYOUT
  5
22
102
{ACAD_REACTORS
330
1A
102
}
330
1A
100
AcDbPlotSettings
  1

  2
none_device
  4

  6

 40
0.0
 41
0.0
 42
0.0
 43
0.0
 44
0.0
 45
0.0
 46
0.0
 47
0.0
 48
0.0
 49
0.0
140
0.0
141
0.0
142
1.0
143
1.0
 70
  1712
 72
     0
 73
     0
 74
     0
  7

 75
     0
147
1.0
148
0.0
149
0.0
100
AcDbLayout
  1
Model
 70
     1
 71
     0
 10
0.0
 20
0.0
 11
12.0
 21
9.0
 12
0.0
 22
0.0
 32
0.0
 14
686.9280241935486
 24
-679.100201612904
 34
0.0
 15
983.9280241935488
 25
-469.1002016129039
 35
0.0
146
0.0
 13
0.0
 23
0.0
 33
0.0
 16
1.0
 26
0.0
 36
0.0
 17
0.0
 27
1.0
 37
0.0
 76
     0
330
1F
331
29
  0
MATERIAL
  5
3D
102
{ACAD_REACTORS
330
3B
102
}
102
{ACAD_XDICTIONARY
360
33D
102
}
330
3B
100
AcDbMaterial
  1
ByBlock
  0
MATERIAL
  5
3C
102
{ACAD_REACTORS
330
3B
102
}
102
{ACAD_XDICTIONARY
360
33B
102
}
330
3B
100
AcDbMaterial
  1
ByLayer
  0
MATERIAL
  5
3E
102
{ACAD_REACTORS
330
3B
102
}
102
{ACAD_XDICTIONARY
360
33F
102
}
330
3B
100
AcDbMaterial
  1
Global
  0
MLINESTYLE
  5
18
102
{ACAD_REACTORS
330
17
102
}
330
17
100
AcDbMlineStyle
  2
Standard
 70
     0
  3

 62
   256
 51
90.0
 52
90.0
 71
     2
 49
0.5
 62
   256
  6
BYLAYER
 49
-0.5
 62
   256
  6
BYLAYER
  0
ACDBPLACEHOLDER
  5
F
102
{ACAD_REACTORS
330
E
102
}
330
E
  0
VISUALSTYLE
  5
2F
102
{ACAD_REACTORS
330
2A
102
}
102
{ACAD_XDICTIONARY
360
323
102
}
330
2A
100
AcDbVisualStyle
  2
2dWireframe
 70
     4
 71
     0
 72
     2
 73
     0
 90
        0
 40
-0.6
 41
-30.0
 62
     5
 63
     7
 74
     1
 91
        4
 64
     7
 65
   257
 75
     1
175
     1
 42
1.0
 92
        0
 66
   257
 43
1.0
 76
     1
 77
     6
 78
     2
 67
     7
 79
     5
170
     0
171
     0
290
     0
174
     0
 93
        1
 44
0.0
173
     0
291
     0
 45
0.0
1001
ACAD
1000
AcDbSavedByObjectVersion
1070
     0
  0
VISUALSTYLE
  5
31
102
{ACAD_REACTORS
330
2A
102
}
102
{ACAD_XDICTIONARY
360
327
102
}
330
2A
100
AcDbVisualStyle
  2
3D Hidden
 70
     6
 71
     1
 72
     2
 73
     2
 90
        0
 40
-0.6
 41
-30.0
 62
     5
 63
     7
 74
     2
 91
        2
 64
     7
 65
   257
 75
     2
175
     1
 42
40.0
 92
        0
 66
   257
 43
1.0
 76
     1
 77
     6
 78
     2
 67
     7
 79
     3
170
     0
171
     0
290
     0
174
     0
 93
        1
 44
0.0
173
     0
291
     0
 45
0.0
1001
ACAD
1000
AcDbSavedByObjectVersion
1070
     0
  0
VISUALSTYLE
  5
30
102
{ACAD_REACTORS
330
2A
102
}
102
{ACAD_XDICTIONARY
360
325
102
}
330
2A
100
AcDbVisualStyle
  2
3dWireframe
 70
     5
 71
     0
 72
     2
 73
     0
 90
        0
 40
-0.6
 41
-30.0
 62
     5
 63
     7
 74
     1
 91
        4
 64
     7
 65
   257
 75
     1
175
     1
 42
1.0
 92
        0
 66
   257
 43
1.0
 76
     1
 77
     6
 78
     2
 67
     7
 79
     5
170
     0
171
     0
290
     0
174
     0
 93
        1
 44
0.0
173
     0
291
     0
 45
0.0
1001
ACAD
1000
AcDbSavedByObjectVersion
1070
     0
  0
VISUALSTYLE
  5
32
102
{ACAD_REACTORS
330
2A
102
}
102
{ACAD_XDICTIONARY
360
329
102
}
330
2A
100
AcDbVisualStyle
  2
Basic
 70
     7
 71
     1
 72
     0
 73
     1
 90
        0
 40
-0.6
 41
-30.0
 62
     5
 63
     7
 74
     0
 91
        4
 64
     7
 65
   257
 75
     1
175
     1
 42
1.0
 92
        8
 66
     7
 43
1.0
 76
     1
 77
     6
 78
     2
 67
     7
 79
     5
170
     0
171
     0
290
     0
174
     0
 93
        1
 44
0.0
173
     0
291
     1
 45
0.0
1001
ACAD
1000
AcDbSavedByObjectVersion
1070
     0
  0
VISUALSTYLE
  5
36
102
{ACAD_REACTORS
330
2A
102
}
102
{ACAD_XDICTIONARY
360
331
102
}
330
2A
100
AcDbVisualStyle
  2
Brighten
 70
    12
 71
     2
 72
     2
 73
     0
 90
        0
 40
-0.6
 41
-30.0
 62
     5
 63
     7
 74
     1
 91
        4
 64
     7
 65
   257
 75
     1
175
     1
 42
1.0
 92
        8
 66
     7
 43
1.0
 76
     1
 77
     6
 78
     2
 67
     7
 79
     5
170
     0
171
     0
290
     0
174
     0
 93
        1
 44
50.0
173
     0
291
     1
 45
0.0
1001
ACAD
1000
AcDbSavedByObjectVersion
1070
     0
  0
VISUALSTYLE
  5
3A
102
{ACAD_REACTORS
330
2A
102
}
102
{ACAD_XDICTIONARY
360
339
102
}
330
2A
100
AcDbVisualStyle
  2
ColorChange
 70
    16
 71
     2
 72
     2
 73
     3
 90
        0
 40
-0.6
 41
-30.0
 62
     5
 63
     8
 74
     1
 91
        4
 64
     7
 65
   257
 75
     1
175
     1
 42
1.0
 92
        8
 66
     8
 43
1.0
 76
     1
 77
     6
 78
     2
 67
     7
 79
     5
170
     0
171
     0
290
     0
174
     0
 93
        1
 44
0.0
173
     0
291
     1
 45
0.0
1001
ACAD
1000
AcDbSavedByObjectVersion
1070
     0
  0
VISUALSTYLE
  5
34
102
{ACAD_REACTORS
330
2A
102
}
102
{ACAD_XDICTIONARY
360
32D
102
}
330
2A
100
AcDbVisualStyle
  2
Conceptual
 70
     9
 71
     3
 72
     2
 73
     0
 90
        0
 40
-0.6
 41
-30.0
 62
     5
 63
     7
 74
     2
 91
        2
 64
     7
 65
   257
 75
     1
175
     1
 42
40.0
 92
        8
 66
     7
 43
1.0
 76
     1
 77
     6
 78
     2
 67
     7
 79
     3
170
     0
171
     0
290
     0
174
     0
 93
        1
 44
0.0
173
     0
291
     0
 45
0.0
1001
ACAD
1000
AcDbSavedByObjectVersion
1070
     0
  0
VISUALSTYLE
  5
35
102
{ACAD_REACTORS
330
2A
102
}
102
{ACAD_XDICTIONARY
360
32F
102
}
330
2A
100
AcDbVisualStyle
  2
Dim
 70
    11
 71
     2
 72
     2
 73
     0
 90
        0
 40
-0.6
 41
-30.0
 62
     5
 63
     7
 74
     1
 91
        4
 64
     7
 65
   257
 75
     1
175
     1
 42
1.0
 92
        8
 66
     7
 43
1.0
 76
     1
 77
     6
 78
     2
 67
     7
 79
     5
170
     0
171
     0
290
     0
174
     0
 93
        1
 44
-50.0
173
     0
291
     1
 45
0.0
1001
ACAD
1000
AcDbSavedByObjectVersion
1070
     0
  0
VISUALSTYLE
  5
39
102
{ACAD_REACTORS
330
2A
102
}
102
{ACAD_XDICTIONARY
360
337
102
}
330
2A
100
AcDbVisualStyle
  2
Facepattern
 70
    15
 71
     2
 72
     2
 73
     0
 90
        0
 40
-0.6
 41
-30.0
 62
     5
 63
     7
 74
     1
 91
        4
 64
     7
 65
   257
 75
     1
175
     1
 42
1.0
 92
        8
 66
     7
 43
1.0
 76
     1
 77
     6
 78
     2
 67
     7
 79
     5
170
     0
171
     0
290
     0
174
     0
 93
        1
 44
0.0
173
     0
291
     1
 45
0.0
1001
ACAD
1000
AcDbSavedByObjectVersion
1070
     0
  0
VISUALSTYLE
  5
2B
102
{ACAD_REACTORS
330
2A
102
}
102
{ACAD_XDICTIONARY
360
31B
102
}
330
2A
100
AcDbVisualStyle
  2
Flat
 70
     0
 71
     2
 72
     1
 73
     1
 90
        2
 40
-0.6
 41
30.0
 62
     5
 63
     7
 74
     0
 91
        4
 64
     7
 65
   257
 75
     1
175
     1
 42
1.0
 92
        8
 66
     7
 43
1.0
 76
     1
 77
     6
 78
     2
 67
     7
 79
     5
170
     0
171
     0
290
     0
174
     0
 93
       13
 44
0.0
173
     0
291
     1
 45
0.0
1001
ACAD
1000
AcDbSavedByObjectVersion
1070
     0
  0
VISUALSTYLE
  5
2C
102
{ACAD_REACTORS
330
2A
102
}
102
{ACAD_XDICTIONARY
360
31D
102
}
330
2A
100
AcDbVisualStyle
  2
FlatWithEdges
 70
     1
 71
     2
 72
     1
 73
     1
 90
        2
 40
-0.6
 41
30.0
 62
     5
 63
     7
 74
     1
 91
        4
 64
     7
 65
   257
 75
     1
175
     1
 42
1.0
 92
        0
 66
   257
 43
1.0
 76
     1
 77
     6
 78
     2
 67
     7
 79
     5
170
     0
171
     0
290
     0
174
     0
 93
       13
 44
0.0
173
     0
291
     1
 45
0.0
1001
ACAD
1000
AcDbSavedByObjectVersion
1070
     0
  0
VISUALSTYLE
  5
2D
102
{ACAD_REACTORS
330
2A
102
}
102
{ACAD_XDICTIONARY
360
31F
102
}
330
2A
100
AcDbVisualStyle
  2
Gouraud
 70
     2
 71
     2
 72
     2
 73
     1
 90
        2
 40
-0.6
 41
30.0
 62
     5
 63
     7
 74
     0
 91
        4
 64
     7
 65
   257
 75
     1
175
     1
 42
1.0
 92
        0
 66
     7
 43
1.0
 76
     1
 77
     6
 78
     2
 67
     7
 79
     5
170
     0
171
     0
290
     0
174
     0
 93
       13
 44
0.0
173
     0
291
     1
 45
0.0
1001
ACAD
1000
AcDbSavedByObjectVersion
1070
     0
  0
VISUALSTYLE
  5
2E
102
{ACAD_REACTORS
330
2A
102
}
102
{ACAD_XDICTIONARY
360
321
102
}
330
2A
100
AcDbVisualStyle
  2
GouraudWithEdges
 70
     3
 71
     2
 72
     2
 73
     1
 90
        2
 40
-0.6
 41
30.0
 62
     5
 63
     7
 74
     1
 91
        4
 64
     7
 65
   257
 75
     1
175
     1
 42
1.0
 92
        0
 66
   257
 43
1.0
 76
     1
 77
     6
 78
     2
 67
     7
 79
     5
170
     0
171
     0
290
     0
174
     0
 93
       13
 44
0.0
173
     0
291
     1
 45
0.0
1001
ACAD
1000
AcDbSavedByObjectVersion
1070
     0
  0
VISUALSTYLE
  5
38
102
{ACAD_REACTORS
330
2A
102
}
102
{ACAD_XDICTIONARY
360
335
102
}
330
2A
100
AcDbVisualStyle
  2
Linepattern
 70
    14
 71
     2
 72
     2
 73
     0
 90
        0
 40
-0.6
 41
-30.0
 62
     5
 63
     7
 74
     1
 91
        4
 64
     7
 65
   257
 75
     7
175
     7
 42
1.0
 92
        8
 66
     7
 43
1.0
 76
     1
 77
     6
 78
     2
 67
     7
 79
     5
170
     0
171
     0
290
     0
174
     0
 93
        1
 44
0.0
173
     0
291
     1
 45
0.0
1001
ACAD
1000
AcDbSavedByObjectVersion
1070
     0
  0
VISUALSTYLE
  5
33
102
{ACAD_REACTORS
330
2A
102
}
102
{ACAD_XDICTIONARY
360
32B
102
}
330
2A
100
AcDbVisualStyle
  2
Realistic
 70
     8
 71
     2
 72
     2
 73
     0
 90
        0
 40
-0.6
 41
-30.0
 62
     5
 63
     7
 74
     1
 91
        0
 64
     7
 65
   257
 75
     1
175
     1
 42
1.0
 92
        8
 66
     8
 43
1.0
 76
     1
 77
     6
 78
     2
 67
     7
 79
     5
170
     0
171
     0
290
     0
174
     0
 93
       13
 44
0.0
173
     0
291
     0
 45
0.0
1001
ACAD
1000
AcDbSavedByObjectVersion
1070
     0
  0
VISUALSTYLE
  5
37
102
{ACAD_REACTORS
330
2A
102
}
102
{ACAD_XDICTIONARY
360
333
102
}
330
2A
100
AcDbVisualStyle
  2
Thicken
 70
    13
 71
     2
 72
     2
 73
     0
 90
        0
 40
-0.6
 41
-30.0
 62
     5
 63
     7
 74
     1
 91
        4
 64
     7
 65
   257
 75
     1
175
     1
 42
1.0
 92
       12
 66
     7
 43
1.0
 76
     1
 77
     6
 78
     2
 67
     7
 79
     5
170
     0
171
     0
290
     0
174
     0
 93
        1
 44
0.0
173
     0
291
     1
 45
0.0
1001
ACAD
1000
AcDbSavedByObjectVersion
1070
     0
  0
DICTIONARYVAR
  5
319
102
{ACAD_REACTORS
330
316
102
}
330
316
100
DictionaryVariables
280
     0
  1
2
  0
DICTIONARYVAR
  5
31A
102
{ACAD_REACTORS
330
316
102
}
330
316
100
DictionaryVariables
280
     0
  1
1
  0
DICTIONARY
  5
33D
330
3D
100
AcDbDictionary
280
     1
281
     1
  3
ACAD_XREC_ROUNDTRIP
360
33E
  0
DICTIONARY
  5
33B
330
3C
100
AcDbDictionary
280
     1
281
     1
  3
ACAD_XREC_ROUNDTRIP
360
33C
  0
DICTIONARY
  5
33F
330
3E
100
AcDbDictionary
280
     1
281
     1
  3
ACAD_XREC_ROUNDTRIP
360
340
  0
DICTIONARY
  5
323
330
2F
100
AcDbDictionary
280
     1
281
     1
  3
ACAD_XREC_ROUNDTRIP
360
324
  0
DICTIONARY
  5
327
330
31
100
AcDbDictionary
280
     1
281
     1
  3
ACAD_XREC_ROUNDTRIP
360
328
  0
DICTIONARY
  5
325
330
30
100
AcDbDictionary
280
     1
281
     1
  3
ACAD_XREC_ROUNDTRIP
360
326
  0
DICTIONARY
  5
329
330
32
100
AcDbDictionary
280
     1
281
     1
  3
ACAD_XREC_ROUNDTRIP
360
32A
  0
DICTIONARY
  5
331
330
36
100
AcDbDictionary
280
     1
281
     1
  3
ACAD_XREC_ROUNDTRIP
360
332
  0
DICTIONARY
  5
339
330
3A
100
AcDbDictionary
280
     1
281
     1
  3
ACAD_XREC_ROUNDTRIP
360
33A
  0
DICTIONARY
  5
32D
330
34
100
AcDbDictionary
280
     1
281
     1
  3
ACAD_XREC_ROUNDTRIP
360
32E
  0
DICTIONARY
  5
32F
330
35
100
AcDbDictionary
280
     1
281
     1
  3
ACAD_XREC_ROUNDTRIP
360
330
  0
DICTIONARY
  5
337
330
39
100
AcDbDictionary
280
     1
281
     1
  3
ACAD_XREC_ROUNDTRIP
360
338
  0
DICTIONARY
  5
31B
330
2B
100
AcDbDictionary
280
     1
281
     1
  3
ACAD_XREC_ROUNDTRIP
360
31C
  0
DICTIONARY
  5
31D
330
2C
100
AcDbDictionary
280
     1
281
     1
  3
ACAD_XREC_ROUNDTRIP
360
31E
  0
DICTIONARY
  5
31F
330
2D
100
AcDbDictionary
280
     1
281
     1
  3
ACAD_XREC_ROUNDTRIP
360
320
  0
DICTIONARY
  5
321
330
2E
100
AcDbDictionary
280
     1
281
     1
  3
ACAD_XREC_ROUNDTRIP
360
322
  0
DICTIONARY
  5
335
330
38
100
AcDbDictionary
280
     1
281
     1
  3
ACAD_XREC_ROUNDTRIP
360
336
  0
DICTIONARY
  5
32B
330
33
100
AcDbDictionary
280
     1
281
     1
  3
ACAD_XREC_ROUNDTRIP
360
32C
  0
DICTIONARY
  5
333
330
37
100
AcDbDictionary
280
     1
281
     1
  3
ACAD_XREC_ROUNDTRIP
360
334
  0
XRECORD
  5
33E
102
{ACAD_REACTORS
330
33D
102
}
330
33D
100
AcDbXrecord
280
     1
102
MATERIAL
148
0.0
149
0.0
149
0.0
 93
        0
 94
      127
282
     0
 72
     1
 77
     1
171
     1
175
     1
179
     1
273
     0
  0
XRECORD
  5
33C
102
{ACAD_REACTORS
330
33B
102
}
330
33B
100
AcDbXrecord
280
     1
102
MATERIAL
148
0.0
149
0.0
149
0.0
 93
        0
 94
      127
282
     0
 72
     1
 77
     1
171
     1
175
     1
179
     1
273
     0
  0
XRECORD
  5
340
102
{ACAD_REACTORS
330
33F
102
}
330
33F
100
AcDbXrecord
280
     1
102
MATERIAL
148
0.0
149
0.0
149
0.0
 93
        0
 94
      127
282
     0
 72
     1
 77
     1
171
     1
175
     1
179
     1
273
     0
  0
XRECORD
  5
324
102
{ACAD_REACTORS
330
323
102
}
330
323
100
AcDbXrecord
280
     1
102
RTVSPropertyOp0
 70
     1
102
RTVSPropertyOp1
 70
     1
102
RTVSPropertyOp2
 70
     1
102
RTVSPropertyOp3
 70
     1
102
RTVSPropertyOp4
 70
     1
102
RTVSPropertyOp5
 70
     1
102
RTVSPropertyOp6
 70
     1
102
RTVSPropertyOp7
 70
     1
102
RTVSPropertyOp8
 70
     1
102
RTVSPropertyOp9
 70
     1
102
RTVSPropertyOp10
 70
     1
102
RTVSPropertyOp11
 70
     1
102
RTVSPropertyOp12
 70
     1
102
RTVSPropertyOp13
 70
     1
102
RTVSPropertyOp14
 70
     1
102
RTVSPropertyOp15
 70
     1
102
RTVSPropertyOp16
 70
     1
102
RTVSPropertyOp17
 70
     1
102
RTVSPropertyOp18
 70
     1
102
RTVSPropertyOp19
 70
     1
102
RTVSPropertyOp20
 70
     1
102
RTVSPropertyOp21
 70
     1
102
RTVSPropertyOp22
 70
     1
102
RTVSPropertyOp23
 70
     1
102
RTVSPropertyOp24
 70
     1
102
RTVSPropertyOp25
 70
     1
102
RTVSPropertyOp26
 70
     1
102
RTVSPropertyOp27
 70
     1
102
RTVSPropertyOp28
 70
     1
102
RTVSPropertyOp29
 70
     1
102
RTVSPropertyOp30
 70
     1
102
RTVSPropertyOp31
 70
     1
102
RTVSPropertyOp32
 70
     1
  0
XRECORD
  5
328
102
{ACAD_REACTORS
330
327
102
}
330
327
100
AcDbXrecord
280
     1
102
RTVSPropertyOp0
 70
     1
102
RTVSPropertyOp1
 70
     1
102
RTVSPropertyOp2
 70
     1
102
RTVSPropertyOp3
 70
     1
102
RTVSPropertyOp4
 70
     1
102
RTVSPropertyOp5
 70
     1
102
RTVSPropertyOp6
 70
     1
102
RTVSPropertyOp7
 70
     1
102
RTVSPropertyOp8
 70
     1
102
RTVSPropertyOp9
 70
     1
102
RTVSPropertyOp10
 70
     1
102
RTVSPropertyOp11
 70
     1
102
RTVSPropertyOp12
 70
     1
102
RTVSPropertyOp13
 70
     1
102
RTVSPropertyOp14
 70
     1
102
RTVSPropertyOp15
 70
     1
102
RTVSPropertyOp16
 70
     1
102
RTVSPropertyOp17
 70
     1
102
RTVSPropertyOp18
 70
     1
102
RTVSPropertyOp19
 70
     1
102
RTVSPropertyOp20
 70
     1
102
RTVSPropertyOp21
 70
     1
102
RTVSPropertyOp22
 70
     1
102
RTVSPropertyOp23
 70
     1
102
RTVSPropertyOp24
 70
     1
102
RTVSPropertyOp25
 70
     1
102
RTVSPropertyOp26
 70
     1
102
RTVSPropertyOp27
 70
     1
102
RTVSPropertyOp28
 70
     1
102
RTVSPropertyOp29
 70
     1
102
RTVSPropertyOp30
 70
     1
102
RTVSPropertyOp31
 70
     1
102
RTVSPropertyOp32
 70
     1
  0
XRECORD
  5
326
102
{ACAD_REACTORS
330
325
102
}
330
325
100
AcDbXrecord
280
     1
102
RTVSPropertyOp0
 70
     1
102
RTVSPropertyOp1
 70
     1
102
RTVSPropertyOp2
 70
     1
102
RTVSPropertyOp3
 70
     1
102
RTVSPropertyOp4
 70
     1
102
RTVSPropertyOp5
 70
     1
102
RTVSPropertyOp6
 70
     1
102
RTVSPropertyOp7
 70
     1
102
RTVSPropertyOp8
 70
     1
102
RTVSPropertyOp9
 70
     1
102
RTVSPropertyOp10
 70
     1
102
RTVSPropertyOp11
 70
     1
102
RTVSPropertyOp12
 70
     1
102
RTVSPropertyOp13
 70
     1
102
RTVSPropertyOp14
 70
     1
102
RTVSPropertyOp15
 70
     1
102
RTVSPropertyOp16
 70
     1
102
RTVSPropertyOp17
 70
     1
102
RTVSPropertyOp18
 70
     1
102
RTVSPropertyOp19
 70
     1
102
RTVSPropertyOp20
 70
     1
102
RTVSPropertyOp21
 70
     1
102
RTVSPropertyOp22
 70
     1
102
RTVSPropertyOp23
 70
     1
102
RTVSPropertyOp24
 70
     1
102
RTVSPropertyOp25
 70
     1
102
RTVSPropertyOp26
 70
     1
102
RTVSPropertyOp27
 70
     1
102
RTVSPropertyOp28
 70
     1
102
RTVSPropertyOp29
 70
     1
102
RTVSPropertyOp30
 70
     1
102
RTVSPropertyOp31
 70
     1
102
RTVSPropertyOp32
 70
     1
  0
XRECORD
  5
32A
102
{ACAD_REACTORS
330
329
102
}
330
329
100
AcDbXrecord
280
     1
102
RTVSPropertyOp0
 70
     1
102
RTVSPropertyOp1
 70
     1
102
RTVSPropertyOp2
 70
     1
102
RTVSPropertyOp3
 70
     1
102
RTVSPropertyOp4
 70
     1
102
RTVSPropertyOp5
 70
     1
102
RTVSPropertyOp6
 70
     1
102
RTVSPropertyOp7
 70
     1
102
RTVSPropertyOp8
 70
     1
102
RTVSPropertyOp9
 70
     1
102
RTVSPropertyOp10
 70
     1
102
RTVSPropertyOp11
 70
     1
102
RTVSPropertyOp12
 70
     1
102
RTVSPropertyOp13
 70
     1
102
RTVSPropertyOp14
 70
     1
102
RTVSPropertyOp15
 70
     1
102
RTVSPropertyOp16
 70
     1
102
RTVSPropertyOp17
 70
     1
102
RTVSPropertyOp18
 70
     1
102
RTVSPropertyOp19
 70
     1
102
RTVSPropertyOp20
 70
     1
102
RTVSPropertyOp21
 70
     1
102
RTVSPropertyOp22
 70
     1
102
RTVSPropertyOp23
 70
     1
102
RTVSPropertyOp24
 70
     1
102
RTVSPropertyOp25
 70
     1
102
RTVSPropertyOp26
 70
     1
102
RTVSPropertyOp27
 70
     1
102
RTVSPropertyOp28
 70
     1
102
RTVSPropertyOp29
 70
     1
102
RTVSPropertyOp30
 70
     1
102
RTVSPropertyOp31
 70
     1
102
RTVSPropertyOp32
 70
     1
  0
XRECORD
  5
332
102
{ACAD_REACTORS
330
331
102
}
330
331
100
AcDbXrecord
280
     1
102
RTVSPropertyOp0
 70
     1
102
RTVSPropertyOp1
 70
     1
102
RTVSPropertyOp2
 70
     1
102
RTVSPropertyOp3
 70
     1
102
RTVSPropertyOp4
 70
     1
102
RTVSPropertyOp5
 70
     1
102
RTVSPropertyOp6
 70
     1
102
RTVSPropertyOp7
 70
     1
102
RTVSPropertyOp8
 70
     1
102
RTVSPropertyOp9
 70
     1
102
RTVSPropertyOp10
 70
     1
102
RTVSPropertyOp11
 70
     1
102
RTVSPropertyOp12
 70
     1
102
RTVSPropertyOp13
 70
     1
102
RTVSPropertyOp14
 70
     1
102
RTVSPropertyOp15
 70
     1
102
RTVSPropertyOp16
 70
     1
102
RTVSPropertyOp17
 70
     1
102
RTVSPropertyOp18
 70
     1
102
RTVSPropertyOp19
 70
     1
102
RTVSPropertyOp20
 70
     1
102
RTVSPropertyOp21
 70
     1
102
RTVSPropertyOp22
 70
     1
102
RTVSPropertyOp23
 70
     1
102
RTVSPropertyOp24
 70
     1
102
RTVSPropertyOp25
 70
     1
102
RTVSPropertyOp26
 70
     1
102
RTVSPropertyOp27
 70
     1
102
RTVSPropertyOp28
 70
     1
102
RTVSPropertyOp29
 70
     1
102
RTVSPropertyOp30
 70
     1
102
RTVSPropertyOp31
 70
     1
102
RTVSPropertyOp32
 70
     1
  0
XRECORD
  5
33A
102
{ACAD_REACTORS
330
339
102
}
330
339
100
AcDbXrecord
280
     1
102
RTVSPropertyOp0
 70
     1
102
RTVSPropertyOp1
 70
     1
102
RTVSPropertyOp2
 70
     1
102
RTVSPropertyOp3
 70
     1
102
RTVSPropertyOp4
 70
     1
102
RTVSPropertyOp5
 70
     1
102
RTVSPropertyOp6
 70
     1
102
RTVSPropertyOp7
 70
     1
102
RTVSPropertyOp8
 70
     1
102
RTVSPropertyOp9
 70
     1
102
RTVSPropertyOp10
 70
     1
102
RTVSPropertyOp11
 70
     1
102
RTVSPropertyOp12
 70
     1
102
RTVSPropertyOp13
 70
     1
102
RTVSPropertyOp14
 70
     1
102
RTVSPropertyOp15
 70
     1
102
RTVSPropertyOp16
 70
     1
102
RTVSPropertyOp17
 70
     1
102
RTVSPropertyOp18
 70
     1
102
RTVSPropertyOp19
 70
     1
102
RTVSPropertyOp20
 70
     1
102
RTVSPropertyOp21
 70
     1
102
RTVSPropertyOp22
 70
     1
102
RTVSPropertyOp23
 70
     1
102
RTVSPropertyOp24
 70
     1
102
RTVSPropertyOp25
 70
     1
102
RTVSPropertyOp26
 70
     1
102
RTVSPropertyOp27
 70
     1
102
RTVSPropertyOp28
 70
     1
102
RTVSPropertyOp29
 70
     1
102
RTVSPropertyOp30
 70
     1
102
RTVSPropertyOp31
 70
     1
102
RTVSPropertyOp32
 70
     1
  0
XRECORD
  5
32E
102
{ACAD_REACTORS
330
32D
102
}
330
32D
100
AcDbXrecord
280
     1
102
RTVSPropertyOp0
 70
     1
102
RTVSPropertyOp1
 70
     1
102
RTVSPropertyOp2
 70
     1
102
RTVSPropertyOp3
 70
     1
102
RTVSPropertyOp4
 70
     1
102
RTVSPropertyOp5
 70
     1
102
RTVSPropertyOp6
 70
     1
102
RTVSPropertyOp7
 70
     1
102
RTVSPropertyOp8
 70
     1
102
RTVSPropertyOp9
 70
     1
102
RTVSPropertyOp10
 70
     1
102
RTVSPropertyOp11
 70
     1
102
RTVSPropertyOp12
 70
     1
102
RTVSPropertyOp13
 70
     1
102
RTVSPropertyOp14
 70
     1
102
RTVSPropertyOp15
 70
     1
102
RTVSPropertyOp16
 70
     1
102
RTVSPropertyOp17
 70
     1
102
RTVSPropertyOp18
 70
     1
102
RTVSPropertyOp19
 70
     1
102
RTVSPropertyOp20
 70
     1
102
RTVSPropertyOp21
 70
     1
102
RTVSPropertyOp22
 70
     1
102
RTVSPropertyOp23
 70
     1
102
RTVSPropertyOp24
 70
     1
102
RTVSPropertyOp25
 70
     1
102
RTVSPropertyOp26
 70
     1
102
RTVSPropertyOp27
 70
     1
102
RTVSPropertyOp28
 70
     1
102
RTVSPropertyOp29
 70
     1
102
RTVSPropertyOp30
 70
     1
102
RTVSPropertyOp31
 70
     1
102
RTVSPropertyOp32
 70
     1
  0
XRECORD
  5
330
102
{ACAD_REACTORS
330
32F
102
}
330
32F
100
AcDbXrecord
280
     1
102
RTVSPropertyOp0
 70
     1
102
RTVSPropertyOp1
 70
     1
102
RTVSPropertyOp2
 70
     1
102
RTVSPropertyOp3
 70
     1
102
RTVSPropertyOp4
 70
     1
102
RTVSPropertyOp5
 70
     1
102
RTVSPropertyOp6
 70
     1
102
RTVSPropertyOp7
 70
     1
102
RTVSPropertyOp8
 70
     1
102
RTVSPropertyOp9
 70
     1
102
RTVSPropertyOp10
 70
     1
102
RTVSPropertyOp11
 70
     1
102
RTVSPropertyOp12
 70
     1
102
RTVSPropertyOp13
 70
     1
102
RTVSPropertyOp14
 70
     1
102
RTVSPropertyOp15
 70
     1
102
RTVSPropertyOp16
 70
     1
102
RTVSPropertyOp17
 70
     1
102
RTVSPropertyOp18
 70
     1
102
RTVSPropertyOp19
 70
     1
102
RTVSPropertyOp20
 70
     1
102
RTVSPropertyOp21
 70
     1
102
RTVSPropertyOp22
 70
     1
102
RTVSPropertyOp23
 70
     1
102
RTVSPropertyOp24
 70
     1
102
RTVSPropertyOp25
 70
     1
102
RTVSPropertyOp26
 70
     1
102
RTVSPropertyOp27
 70
     1
102
RTVSPropertyOp28
 70
     1
102
RTVSPropertyOp29
 70
     1
102
RTVSPropertyOp30
 70
     1
102
RTVSPropertyOp31
 70
     1
102
RTVSPropertyOp32
 70
     1
  0
XRECORD
  5
338
102
{ACAD_REACTORS
330
337
102
}
330
337
100
AcDbXrecord
280
     1
102
RTVSPropertyOp0
 70
     1
102
RTVSPropertyOp1
 70
     1
102
RTVSPropertyOp2
 70
     1
102
RTVSPropertyOp3
 70
     1
102
RTVSPropertyOp4
 70
     1
102
RTVSPropertyOp5
 70
     1
102
RTVSPropertyOp6
 70
     1
102
RTVSPropertyOp7
 70
     1
102
RTVSPropertyOp8
 70
     1
102
RTVSPropertyOp9
 70
     1
102
RTVSPropertyOp10
 70
     1
102
RTVSPropertyOp11
 70
     1
102
RTVSPropertyOp12
 70
     1
102
RTVSPropertyOp13
 70
     1
102
RTVSPropertyOp14
 70
     1
102
RTVSPropertyOp15
 70
     1
102
RTVSPropertyOp16
 70
     1
102
RTVSPropertyOp17
 70
     1
102
RTVSPropertyOp18
 70
     1
102
RTVSPropertyOp19
 70
     1
102
RTVSPropertyOp20
 70
     1
102
RTVSPropertyOp21
 70
     1
102
RTVSPropertyOp22
 70
     1
102
RTVSPropertyOp23
 70
     1
102
RTVSPropertyOp24
 70
     1
102
RTVSPropertyOp25
 70
     1
102
RTVSPropertyOp26
 70
     1
102
RTVSPropertyOp27
 70
     1
102
RTVSPropertyOp28
 70
     1
102
RTVSPropertyOp29
 70
     1
102
RTVSPropertyOp30
 70
     1
102
RTVSPropertyOp31
 70
     1
102
RTVSPropertyOp32
 70
     1
  0
XRECORD
  5
31C
102
{ACAD_REACTORS
330
31B
102
}
330
31B
100
AcDbXrecord
280
     1
102
RTVSPropertyOp0
 70
     1
102
RTVSPropertyOp1
 70
     1
102
RTVSPropertyOp2
 70
     1
102
RTVSPropertyOp3
 70
     1
102
RTVSPropertyOp4
 70
     1
102
RTVSPropertyOp5
 70
     1
102
RTVSPropertyOp6
 70
     1
102
RTVSPropertyOp7
 70
     1
102
RTVSPropertyOp8
 70
     1
102
RTVSPropertyOp9
 70
     1
102
RTVSPropertyOp10
 70
     1
102
RTVSPropertyOp11
 70
     1
102
RTVSPropertyOp12
 70
     1
102
RTVSPropertyOp13
 70
     1
102
RTVSPropertyOp14
 70
     1
102
RTVSPropertyOp15
 70
     1
102
RTVSPropertyOp16
 70
     1
102
RTVSPropertyOp17
 70
     1
102
RTVSPropertyOp18
 70
     1
102
RTVSPropertyOp19
 70
     1
102
RTVSPropertyOp20
 70
     1
102
RTVSPropertyOp21
 70
     1
102
RTVSPropertyOp22
 70
     1
102
RTVSPropertyOp23
 70
     1
102
RTVSPropertyOp24
 70
     1
102
RTVSPropertyOp25
 70
     1
102
RTVSPropertyOp26
 70
     1
102
RTVSPropertyOp27
 70
     1
102
RTVSPropertyOp28
 70
     1
102
RTVSPropertyOp29
 70
     1
102
RTVSPropertyOp30
 70
     1
102
RTVSPropertyOp31
 70
     1
102
RTVSPropertyOp32
 70
     1
  0
XRECORD
  5
31E
102
{ACAD_REACTORS
330
31D
102
}
330
31D
100
AcDbXrecord
280
     1
102
RTVSPropertyOp0
 70
     1
102
RTVSPropertyOp1
 70
     1
102
RTVSPropertyOp2
 70
     1
102
RTVSPropertyOp3
 70
     1
102
RTVSPropertyOp4
 70
     1
102
RTVSPropertyOp5
 70
     1
102
RTVSPropertyOp6
 70
     1
102
RTVSPropertyOp7
 70
     1
102
RTVSPropertyOp8
 70
     1
102
RTVSPropertyOp9
 70
     1
102
RTVSPropertyOp10
 70
     1
102
RTVSPropertyOp11
 70
     1
102
RTVSPropertyOp12
 70
     1
102
RTVSPropertyOp13
 70
     1
102
RTVSPropertyOp14
 70
     1
102
RTVSPropertyOp15
 70
     1
102
RTVSPropertyOp16
 70
     1
102
RTVSPropertyOp17
 70
     1
102
RTVSPropertyOp18
 70
     1
102
RTVSPropertyOp19
 70
     1
102
RTVSPropertyOp20
 70
     1
102
RTVSPropertyOp21
 70
     1
102
RTVSPropertyOp22
 70
     1
102
RTVSPropertyOp23
 70
     1
102
RTVSPropertyOp24
 70
     1
102
RTVSPropertyOp25
 70
     1
102
RTVSPropertyOp26
 70
     1
102
RTVSPropertyOp27
 70
     1
102
RTVSPropertyOp28
 70
     1
102
RTVSPropertyOp29
 70
     1
102
RTVSPropertyOp30
 70
     1
102
RTVSPropertyOp31
 70
     1
102
RTVSPropertyOp32
 70
     1
  0
XRECORD
  5
320
102
{ACAD_REACTORS
330
31F
102
}
330
31F
100
AcDbXrecord
280
     1
102
RTVSPropertyOp0
 70
     1
102
RTVSPropertyOp1
 70
     1
102
RTVSPropertyOp2
 70
     1
102
RTVSPropertyOp3
 70
     1
102
RTVSPropertyOp4
 70
     1
102
RTVSPropertyOp5
 70
     1
102
RTVSPropertyOp6
 70
     1
102
RTVSPropertyOp7
 70
     1
102
RTVSPropertyOp8
 70
     1
102
RTVSPropertyOp9
 70
     1
102
RTVSPropertyOp10
 70
     1
102
RTVSPropertyOp11
 70
     1
102
RTVSPropertyOp12
 70
     1
102
RTVSPropertyOp13
 70
     1
102
RTVSPropertyOp14
 70
     1
102
RTVSPropertyOp15
 70
     1
102
RTVSPropertyOp16
 70
     1
102
RTVSPropertyOp17
 70
     1
102
RTVSPropertyOp18
 70
     1
102
RTVSPropertyOp19
 70
     1
102
RTVSPropertyOp20
 70
     1
102
RTVSPropertyOp21
 70
     1
102
RTVSPropertyOp22
 70
     1
102
RTVSPropertyOp23
 70
     1
102
RTVSPropertyOp24
 70
     1
102
RTVSPropertyOp25
 70
     1
102
RTVSPropertyOp26
 70
     1
102
RTVSPropertyOp27
 70
     1
102
RTVSPropertyOp28
 70
     1
102
RTVSPropertyOp29
 70
     1
102
RTVSPropertyOp30
 70
     1
102
RTVSPropertyOp31
 70
     1
102
RTVSPropertyOp32
 70
     1
  0
XRECORD
  5
322
102
{ACAD_REACTORS
330
321
102
}
330
321
100
AcDbXrecord
280
     1
102
RTVSPropertyOp0
 70
     1
102
RTVSPropertyOp1
 70
     1
102
RTVSPropertyOp2
 70
     1
102
RTVSPropertyOp3
 70
     1
102
RTVSPropertyOp4
 70
     1
102
RTVSPropertyOp5
 70
     1
102
RTVSPropertyOp6
 70
     1
102
RTVSPropertyOp7
 70
     1
102
RTVSPropertyOp8
 70
     1
102
RTVSPropertyOp9
 70
     1
102
RTVSPropertyOp10
 70
     1
102
RTVSPropertyOp11
 70
     1
102
RTVSPropertyOp12
 70
     1
102
RTVSPropertyOp13
 70
     1
102
RTVSPropertyOp14
 70
     1
102
RTVSPropertyOp15
 70
     1
102
RTVSPropertyOp16
 70
     1
102
RTVSPropertyOp17
 70
     1
102
RTVSPropertyOp18
 70
     1
102
RTVSPropertyOp19
 70
     1
102
RTVSPropertyOp20
 70
     1
102
RTVSPropertyOp21
 70
     1
102
RTVSPropertyOp22
 70
     1
102
RTVSPropertyOp23
 70
     1
102
RTVSPropertyOp24
 70
     1
102
RTVSPropertyOp25
 70
     1
102
RTVSPropertyOp26
 70
     1
102
RTVSPropertyOp27
 70
     1
102
RTVSPropertyOp28
 70
     1
102
RTVSPropertyOp29
 70
     1
102
RTVSPropertyOp30
 70
     1
102
RTVSPropertyOp31
 70
     1
102
RTVSPropertyOp32
 70
     1
  0
XRECORD
  5
336
102
{ACAD_REACTORS
330
335
102
}
330
335
100
AcDbXrecord
280
     1
102
RTVSPropertyOp0
 70
     1
102
RTVSPropertyOp1
 70
     1
102
RTVSPropertyOp2
 70
     1
102
RTVSPropertyOp3
 70
     1
102
RTVSPropertyOp4
 70
     1
102
RTVSPropertyOp5
 70
     1
102
RTVSPropertyOp6
 70
     1
102
RTVSPropertyOp7
 70
     1
102
RTVSPropertyOp8
 70
     1
102
RTVSPropertyOp9
 70
     1
102
RTVSPropertyOp10
 70
     1
102
RTVSPropertyOp11
 70
     1
102
RTVSPropertyOp12
 70
     1
102
RTVSPropertyOp13
 70
     1
102
RTVSPropertyOp14
 70
     1
102
RTVSPropertyOp15
 70
     1
102
RTVSPropertyOp16
 70
     1
102
RTVSPropertyOp17
 70
     1
102
RTVSPropertyOp18
 70
     1
102
RTVSPropertyOp19
 70
     1
102
RTVSPropertyOp20
 70
     1
102
RTVSPropertyOp21
 70
     1
102
RTVSPropertyOp22
 70
     1
102
RTVSPropertyOp23
 70
     1
102
RTVSPropertyOp24
 70
     1
102
RTVSPropertyOp25
 70
     1
102
RTVSPropertyOp26
 70
     1
102
RTVSPropertyOp27
 70
     1
102
RTVSPropertyOp28
 70
     1
102
RTVSPropertyOp29
 70
     1
102
RTVSPropertyOp30
 70
     1
102
RTVSPropertyOp31
 70
     1
102
RTVSPropertyOp32
 70
     1
  0
XRECORD
  5
32C
102
{ACAD_REACTORS
330
32B
102
}
330
32B
100
AcDbXrecord
280
     1
102
RTVSPropertyOp0
 70
     1
102
RTVSPropertyOp1
 70
     1
102
RTVSPropertyOp2
 70
     1
102
RTVSPropertyOp3
 70
     1
102
RTVSPropertyOp4
 70
     1
102
RTVSPropertyOp5
 70
     1
102
RTVSPropertyOp6
 70
     1
102
RTVSPropertyOp7
 70
     1
102
RTVSPropertyOp8
 70
     1
102
RTVSPropertyOp9
 70
     1
102
RTVSPropertyOp10
 70
     1
102
RTVSPropertyOp11
 70
     1
102
RTVSPropertyOp12
 70
     1
102
RTVSPropertyOp13
 70
     1
102
RTVSPropertyOp14
 70
     1
102
RTVSPropertyOp15
 70
     1
102
RTVSPropertyOp16
 70
     1
102
RTVSPropertyOp17
 70
     1
102
RTVSPropertyOp18
 70
     1
102
RTVSPropertyOp19
 70
     1
102
RTVSPropertyOp20
 70
     1
102
RTVSPropertyOp21
 70
     1
102
RTVSPropertyOp22
 70
     1
102
RTVSPropertyOp23
 70
     1
102
RTVSPropertyOp24
 70
     1
102
RTVSPropertyOp25
 70
     1
102
RTVSPropertyOp26
 70
     1
102
RTVSPropertyOp27
 70
     1
102
RTVSPropertyOp28
 70
     1
102
RTVSPropertyOp29
 70
     1
102
RTVSPropertyOp30
 70
     1
102
RTVSPropertyOp31
 70
     1
102
RTVSPropertyOp32
 70
     1
  0
XRECORD
  5
334
102
{ACAD_REACTORS
330
333
102
}
330
333
100
AcDbXrecord
280
     1
102
RTVSPropertyOp0
 70
     1
102
RTVSPropertyOp1
 70
     1
102
RTVSPropertyOp2
 70
     1
102
RTVSPropertyOp3
 70
     1
102
RTVSPropertyOp4
 70
     1
102
RTVSPropertyOp5
 70
     1
102
RTVSPropertyOp6
 70
     1
102
RTVSPropertyOp7
 70
     1
102
RTVSPropertyOp8
 70
     1
102
RTVSPropertyOp9
 70
     1
102
RTVSPropertyOp10
 70
     1
102
RTVSPropertyOp11
 70
     1
102
RTVSPropertyOp12
 70
     1
102
RTVSPropertyOp13
 70
     1
102
RTVSPropertyOp14
 70
     1
102
RTVSPropertyOp15
 70
     1
102
RTVSPropertyOp16
 70
     1
102
RTVSPropertyOp17
 70
     1
102
RTVSPropertyOp18
 70
     1
102
RTVSPropertyOp19
 70
     1
102
RTVSPropertyOp20
 70
     1
102
RTVSPropertyOp21
 70
     1
102
RTVSPropertyOp22
 70
     1
102
RTVSPropertyOp23
 70
     1
102
RTVSPropertyOp24
 70
     1
102
RTVSPropertyOp25
 70
     1
102
RTVSPropertyOp26
 70
     1
102
RTVSPropertyOp27
 70
     1
102
RTVSPropertyOp28
 70
     1
102
RTVSPropertyOp29
 70
     1
102
RTVSPropertyOp30
 70
     1
102
RTVSPropertyOp31
 70
     1
102
RTVSPropertyOp32
 70
     1
  0
ENDSEC
  0
EOF
